[bittorrent] gd1990-12-13.149556.UltraMatrix.sbd.cm.miller.flac24

Automated Mailer noreply-bt.e at etree.org
Fri May 1 00:47:34 UTC 2020


Band:           Grateful Dead
Torrent Name:   gd1990-12-13.149556.UltraMatrix.sbd.cm.miller.flac24
Uploaded by:    norm
DB Link:        
Details:        http://bt.etree.org/details.php?id=609538

Contact the seeder at http://db.etree.org/norm

If the link to this show does not work, it was probably removed for
being non-trade-friendly.

Description / text file:
-------------------------
Grateful Dead - December 13, 1990
McNichols Arena - Denver, CO

Recording Info:
UltraMatrix SBD > Cassette Master (TDK SA-X100)

Transfer Info:
Cassette Master (Nakamichi CR-7A) > Tascam DA-3000 (DSF 1-bit/5.6MHz) >
KORG AudioGate 4 > Adobe Audition CC 2015 > Samplitude Pro X4 Suite > FLAC/24
(1 DVD FLAC)

All Transfers and Mastering By Charlie Miller
charliemiller87 at earthlink.net
April 16, 2020

Notes:
-- Recorded by Don Pearson and Dan Healy
-- UltraMatrix DAT Masters were used to cover the tape flips

Set 1:
01 - Tuning
02 - Jack Straw >
03 - Sugaree
04 - Wang Dang Doodle
05 - Friend Of The Devil
06 - Me And My Uncle >
07 - Big River
08 - Ramble On Rose
09 - Stuck Inside Of Mobile With The Memphis Blues Again
10 - Valley Road

Set 2:
11 - Tuning
12 - Help On The Way >
13 - Slipknot >
14 - Franklin's Tower
15 - Saint Of Circumstance
16 - Eyes Of The World >
17 - Drums >
18 - Space >
19 - The Other One >
20 - Morning Dew
21 - Box Of Rain

Encore:
22 - Encore Break
23 - U.S. Blues


SHNTOOL OUTPUT:
    length     expanded size    cdr  WAVE problems  fmt   ratio  filename
     0:58.775      33854438 B   cxx   --   ---xx   flac  0.6259  01 Tuning.flac
     6:22.223     220160558 B   cxx   --   ---xx   flac  0.6842  02 Jack Straw.flac
    13:17.903     459591944 B   cxx   --   ---xx   flac  0.6702  03 Sugaree.flac
     8:05.511     279654494 B   cxx   --   ---xx   flac  0.6666  04 Wang Dang Doodle.flac
     9:01.189     311724926 B   cxx   --   ---xx   flac  0.6701  05 Friend Of The Devil.flac
     3:10.181     109544522 B   cxx   --   ---xx   flac  0.6869  06 Me And My Uncle.flac
     6:38.433     229497344 B   cxx   --   ---xx   flac  0.6646  07 Big River.flac
     7:40.873     265462646 B   cxx   --   ---xx   flac  0.6708  08 Ramble On Rose.flac
     9:24.162     324957188 B   cxx   --   ---xx   flac  0.6821  09 Stuck Inside Of Mobile With The Memphis Blues Again.flac
     5:22.201     185588048 B   cxx   --   ---xx   flac  0.6799  10 Valley Road.flac
     0:41.364      23825624 B   cxx   --   ---xx   flac  0.6254  11 Tuning.flac
     4:24.748     152494928 B   cxx   --   ---xx   flac  0.6745  12 Help On The Way.flac
     4:34.921     158354528 B   cxx   --   ---xx   flac  0.6728  13 Slipknot!.flac
     9:07.794     315529574 B   cxx   --   ---xx   flac  0.6711  14 Franklin's Tower.flac
     6:11.162     213789422 B   cxx   --   ---xx   flac  0.6826  15 Saint Of Circumstance.flac
    12:16.965     424491674 B   cxx   --   ---xx   flac  0.6735  16 Eyes Of The World.flac
     9:44.955     336934106 B   cxx   --   ---xx   flac  0.6384  17 Drums.flac
     9:11.964     317931254 B   cxx   --   ---xx   flac  0.6297  18 Space.flac
     7:35.639     262448186 B   cxx   --   ---xx   flac  0.6729  19 The Other One.flac
    11:37.612     401824586 B   cxx   --   ---xx   flac  0.6615  20 Morning Dew.flac
     4:43.909     163531640 B   cxx   --   ---xx   flac  0.6851  21 Box Of Rain.flac
     2:24.219      83070230 B   cxx   --   ---xx   flac  0.5277  22 Encore Break.flac
     5:31.528     190960178 B   cxx   --   ---xx   flac  0.6762  23 US Blues.flac
   158:08.231    5465222038 B                            0.6659  (23 files)



More information about the bittorrent mailing list