[bittorrent] jg1983-10-03.145932.jgb.s1-s2p.aud.flac2448

Automated Mailer noreply-bt.e at etree.org
Sun Mar 31 16:28:38 UTC 2019


Band:           Garcia
Torrent Name:   jg1983-10-03.145932.jgb.s1-s2p.aud.flac2448
Uploaded by:    nfagdtrfb
DB Link:        
Details:        http://bt.etree.org/details.php?id=604933

Contact the seeder at http://db.etree.org/nfagdtrfb

If the link to this show does not work, it was probably removed for
being non-trade-friendly.

Description / text file:
-------------------------
JERRY GARCIA BAND
Palomino Station
Riverside CA
10-03-1983

s1t01 How Sweet It Is
s1t02 They Love Each Other
s1t03 I Second That Emotion
s1t04 Valerie
s1t05 Cats Under the Stars
s1t06 Run for the Roses

s2t01 The Harder They Come
s2t02 Sugaree
s2t03 Tore Up Over You

Source: AUD (unknown gear) > MAC > 1st-Gen cassette, with a big 
thanks to Jon Bernstein for providing this recording.

Transfer: TDK SA-X 90 > Nakamichi CR-5A > Edirol FA-66 > Wavelab 
2448 >  CD-Wave (24bit output) > TLH > FLAC 2448 tagged. Transfer 
by Andrew F. 03/2019

Note: Start of HSII slightly clipped. The remainder of the show 
after TUOY is missing, likely two or three more tunes were played.

    length     expanded size    cdr  WAVE problems  fmt   ratio  filename
     8:37.440     149022764 B   cxx   --   ---xx   flac  0.7377  jgb1983-10-03s1t01.flac
     8:22.200     144633644 B   cxx   --   ---xx   flac  0.7252  jgb1983-10-03s1t02.flac
    11:02.613     190832684 B   cxx   --   ---xx   flac  0.7368  jgb1983-10-03s1t03.flac
     7:57.440     137502764 B   cxx   --   ---xx   flac  0.7239  jgb1983-10-03s1t04.flac
     8:06.120     140002604 B   cxx   --   ---xx   flac  0.7333  jgb1983-10-03s1t05.flac
     5:10.269      89357660 B   cxx   --   ---xx   flac  0.7221  jgb1983-10-03s1t06.flac
    12:35.333     217536044 B   cxx   --   ---xx   flac  0.7244  jgb1983-10-03s2t01.flac
    15:12.760     262874924 B   cxx   --   ---xx   flac  0.7261  jgb1983-10-03s2t02.flac
     9:36.988     166172624 B   cxx   --   ---xx   flac  0.7327  jgb1983-10-03s2t03.flac
    86:41.164    1497935712 B                            0.7292  (9 files)

No errors occured.




More information about the bittorrent mailing list