[bittorrent] jg1989-09-16.145884.jgb.nak.cm100.holtz.flac16

Automated Mailer noreply-bt.e at etree.org
Sat Mar 30 12:20:35 UTC 2019


Band:           Garcia
Torrent Name:   jg1989-09-16.145884.jgb.nak.cm100.holtz.flac16
Uploaded by:    norm
DB Link:        
Details:        http://bt.etree.org/details.php?id=604906

Contact the seeder at http://db.etree.org/norm

If the link to this show does not work, it was probably removed for
being non-trade-friendly.

Description / text file:
-------------------------
133609 24 > 16 - same HASH served @ Lossless Legs

Jerry Garcia Band
Poplar Creek Music center
Hoffman Estates, IL
1989-09-16

24/96 File Set Avb

This file set is 16 bit @ 44.1

Field Equipment Source: 2 x Nakamichi CM-100 mics with CP-1 capsules (worn in hat) > Sony WM-D6C analog cassette recorder

Transfer:  MAC > Tascam 112 analog cassette deck > Edirol Audio Capture UA-5 USB Audio Interface > 24/96 > WAV PC > Audacity  > Trader's Little Helper > FLAC level 8 > 24/96 file set

Recorded, tansferred, tracked and FLAC'd by Greg Holtz

Special Thanks to Mark K. and Martha W. for their assistance at this and dozens of other shows for keeping an eye on security, blocking potential hazards, running interference, and grabbing food and drinks for the guy that had to stand as still as possible for the entire show. ;-)   Thanks as well to Indydarkstar for use of the UA-5.

Set One:

1)  Cats Under The Stars
2)  They Love Each Other
3)  Let It Rock
4)  I Shall Be Released
5)  Someday Baby
6)  Dear Prudence
7)  Let's Spend The Night Together

Set Two:

8)  How Sweet It Is
9)  Knockin' On Heaven's Door
10) Think
11) Waiting For A Miracle
12) Evangeline
13) The Night They Drove Old Dixie Down
14) Tangled Up In Blue


June 9, 2015 Recollection:

This was a two show JGB run for us, catching the Alpine Valley show on September 15 and then Poplar Creek on the 16th.  At the time these were fairly big venues for the JGB, and if my memory serves me right the scene outside was pretty laid back at both venues.  Sneaking the recording gear into these shows took some creative stealth maneuvers, and taping was dicey.  At this Poplar Creek show we saw several tapers get nabbed. There was a guy right next to us hand-holding his big AKG microphones.  He could not have been less stealthy, and security quickly spotted him and escorted him away, completely oblivious to the fact that I was also recording the show.  The old hat trick was always useful to keep things on the down low.  Three security guys walked right down our row to nab the AKG guy, and they didn't even look at me.  I still get a kick out of that.  Mark and Martha employed the old misdirection and slight of hand maneuvers and stole their attention away from me, and we didn't mi
 ss a beat, save for a quick flip before Evangeline.  I always thought that this was a very good recording, and it is the first of many new 24/96 transfers that will be forthcoming over the next few months/years in the effort to breathe new life into these old master analog tapes. 

We hope that you enjoy listening to this music as much as we enjoyed capturing it.  Long Live.

Greg Holtz

    length     expanded size    cdr  WAVE problems  fmt   ratio  filename
    12:16.11      129856316 B   ---   --   ---xx   flac  0.6205  JGB1989-09-16.Set1.track01 - Cats Under The Stars.flac
     9:18.41       98527676 B   ---   --   ---xx   flac  0.6346  JGB1989-09-16.Set1.track02 - They Love Each Other.flac
     9:21.31       99033356 B   ---   --   ---xx   flac  0.6485  JGB1989-09-16.Set1.track03 - Let It Rock.flac
     9:45.57      103328108 B   ---   --   ---xx   flac  0.6363  JGB1989-09-16.Set1.track04 - I Shall Be Released.flac
     8:23.73       88900940 B   ---   --   ---xx   flac  0.6116  JGB1989-09-16.Set1.track05 - Someday Baby.flac
    11:09.68      118171580 B   ---   --   ---xx   flac  0.6480  JGB1989-09-16.Set1.track06 - Dear Prudence.flac
    10:21.05      109556204 B   ---   --   ---xx   flac  0.6627  JGB1989-09-16.Set1.track07 - Let's Spend The Night Together.flac
     9:03.39       95876972 B   ---   --   ---xx   flac  0.6106  JGB1989-09-16.Set2.track01 - How Sweet It Is.flac
    12:03.39      127628972 B   ---   --   ---xx   flac  0.6027  JGB1989-09-16.Set2.track02 - Knockin' On Heaven's Door.flac
    10:43.20      113472284 B   ---   --   ---xx   flac  0.6197  JGB1989-09-16.Set2.track03 - Think.flac
     6:40.28       70625900 B   ---   --   ---xx   flac  0.6294  JGB1989-09-16.Set2.track04 - Waiting For A Miracle.flac
     6:05.05       64397804 B   ---   --   ---xx   flac  0.6353  JGB1989-09-16.Set2.track05 - Evangeline.flac
    10:27.15      110638124 B   ---   --   ---xx   flac  0.6268  JGB1989-09-16.Set2.track06 - The Night They Drove Old Dixie Down.flac
    12:32.28      132718700 B   ---   --   ---xx   flac  0.6549  JGB1989-09-16.Set2.track07 - Tangled Up In Blue.flac
   138:12.10     1462732936 B                            0.6317  (14 files)



More information about the bittorrent mailing list