[bittorrent] jg1989-09-16.145879.jgb.s2.ecm909.markson.flac16

Automated Mailer noreply-bt.e at etree.org
Fri Mar 29 21:57:58 UTC 2019


Band:           Garcia
Torrent Name:   jg1989-09-16.145879.jgb.s2.ecm909.markson.flac16
Uploaded by:    norm
DB Link:        
Details:        http://bt.etree.org/details.php?id=604901

Contact the seeder at http://db.etree.org/norm

If the link to this show does not work, it was probably removed for
being non-trade-friendly.

Description / text file:
-------------------------
141928 24 > 16 - same HASH served @ Lossless Legs

Jerry Garcia Band
9/16/89
Set 2
Poplar Creek
Hoffman Estates, IL

24bits/48khz Source

Source: Sony ECM909 -> Sony D6C -> Master Cassette -> Nak 7a -> Tascam DA3000 @24 bit / 48khz-> Wavelab -> Flac

This file set is 16 bit @ 44.1

Recorded and Mastered (29 years later) by Tom Markson

01 How Sweet it Is
02 Knockin on Heavens Door
03 Think
04 Waiting for a Miracle
05 Evangeline
06 Night They Drove Old Dixie Down
07 Tangled up in Blue

Thanks to Rob Berger for the Nak7a used to transfer this recording and Jamie Waddell for his assistance mastering.

Set I is missing.  Hopefully, it turns up one day.

Originally shared at www.shnflac.net

    length     expanded size    cdr  WAVE problems  fmt   ratio  filename
     7:34.00       80085644 B   ---   --   ---xx   flac  0.5832  01-How Sweet it Is.flac
    12:16.00      129830444 B   ---   --   ---xx   flac  0.5618  02-Knockin on Heavens Door.flac
    10:56.00      115718444 B   ---   --   ---xx   flac  0.5848  03-Think.flac
     6:50.00       72324044 B   ---   --   ---xx   flac  0.5923  04-Waiting for a Miracle.flac
     6:20.00       67032044 B   ---   --   ---xx   flac  0.5929  05-Evangeline.flac
    10:24.00      110073644 B   ---   --   ---xx   flac  0.5774  06-Night They Drove Old Dixie Down.flac
    12:34.00      133005644 B   ---   --   ---xx   flac  0.5917  07-Tangled up in Blue.flac
    66:54.00      708069908 B                            0.5821  (7 files)



More information about the bittorrent mailing list