[bittorrent] jg1984-01-16.145877.jgb.s2pt.sbd.cm.miller.flac16

Automated Mailer noreply-bt.e at etree.org
Fri Mar 29 18:55:45 UTC 2019


Band:           Garcia
Torrent Name:   jg1984-01-16.145877.jgb.s2pt.sbd.cm.miller.flac16
Uploaded by:    norm
DB Link:        
Details:        http://bt.etree.org/details.php?id=604899

Contact the seeder at http://db.etree.org/norm

If the link to this show does not work, it was probably removed for
being non-trade-friendly.

Description / text file:
-------------------------
141496 24 > 16 - same HASH served @ Lossless Legs

Jerry Garcia Band - January 16, 1984
Silva Hall - Hult Center - Eugene, OR

Recording Info:
SBD > Cassette Master (Sony TC-D5M/Maxell XL-II)

Transfer Info:
Cassette Master (Nakamichi CR-7A) > Tascam DA-3000 (DSF 1-bit/5.8 MHz) >
KORG AudioGate 4 > Samplitude Pro X3 Suite > FLAC/24
(1 Disc FLAC)

All Transfers and Mastering By Charlie Miller
charliemiller87 at earthlink.net
March 26, 2018

Notes:
-- This is the last part of the show
-- Thanks to Deb Trist for lending me her masters
-- Jerry's stage volume was very loud so he's not turned up in the house mix
-- This file set is 16 bit @ 44.1

Set 2:
01 - Gomorrah
02 - Tore Up Over You
03 - Tangled Up In Blue
04 - Encore Break

Encore:
05 - Midnight Moonlight


SHNTOOL OUTPUT:
    length     expanded size    cdr  WAVE problems  fmt   ratio  filename
     5:59.60       63468764 B   ---   --   ---xx   flac  0.5677  01 Gomorrah.flac
    11:47.11      124740716 B   ---   --   ---xx   flac  0.5793  02 Tore Up Over You.flac
    13:35.21      143815436 B   ---   --   ---xx   flac  0.5977  03 Tsngled Up In Blue.flac
     0:35.49        6289292 B   ---   --   ---xx   flac  0.5035  04 Encore Break.flac
     7:14.11       76583516 B   ---   --   ---xx   flac  0.6077  05 Midnight Moonlight.flac
    39:12.02      414897724 B                            0.5880  (5 files)



More information about the bittorrent mailing list