[bittorrent] jg1983-05-29.145876.jgb.beyerm160.huston.miller.sirmick.flac16

Automated Mailer noreply-bt.e at etree.org
Fri Mar 29 15:33:11 UTC 2019


Band:           Garcia
Torrent Name:   jg1983-05-29.145876.jgb.beyerm160.huston.miller.sirmick.flac16
Uploaded by:    norm
DB Link:        
Details:        http://bt.etree.org/details.php?id=604896

Contact the seeder at http://db.etree.org/norm

If the link to this show does not work, it was probably removed for
being non-trade-friendly.

Description / text file:
-------------------------
141979 24 > 16 - same HASH served @ Lossless Legs

Jerry Garcia Band
Bushnell Auditorium,
Hartford, CT
05/29/1983


Source: Beyer M160 > Uher deck > Nakamichi 550 > Casette Master (Maxell UDXL-II) - Taped by Rudy Huston, patched out of Marc Erdheims.
Transfer: Cassette Master  > Nakamichi CR-7A >  > wav 24/96 - Transferred by Charlie Miller
Lineage: wav 24/96 > Adobe Audition 3 > iZotope RX6 Advanced > iZotope Ozone 5 Advanced > CD Wave > TLH > Flac 24  

This file set is 16 bit @ 44.1

Set I

01   Sugaree
02   Catfish John
03   That's What Love Will Make You Do
04   Mississippi Moon
05   Love in the Afternoon >
06   Run for the Roses


Set II

01   Tangled Up In Blue
02   Tore Up Over You
03   I'll Take A Melody
04   The Night They Drove Old Dixie Down >
05   Deal

encore

06   Rhapsody in Red




Jerry Garcia - guitar, vocals
John Kahn - bass
Melvin Seals - keyboards
Greg Errico - drums
DeeDee Dickerson - backing vocals
Jaclyn LaBranch - backing vocals



Notes:

- Tape pauses and flips patched with shnids  76910 and 106095 - Thank you Bill Vita , David Minches, Bob Morris and Chuck T.



Thanks to Joe B. Jones for help with pitch correction.

Thanks to Rudy Huston for this source.

Thanks to Charlie Miller for yet another fine transfer.



edited and mastered
SIRMick
May 2018


shntool output:

    length     expanded size    cdr  WAVE problems  fmt   ratio  filename
    12:21.33      130790060 B   ---   --   ---xx   flac  0.6432  jgb1983-05-29s1t01.flac
    11:59.07      126848108 B   ---   --   ---xx   flac  0.6335  jgb1983-05-29s1t02.flac
    11:29.08      121558460 B   ---   --   ---xx   flac  0.6481  jgb1983-05-29s1t03.flac
     8:51.01       93670796 B   ---   --   ---xx   flac  0.6120  jgb1983-05-29s1t04.flac
     6:58.53       73859900 B   ---   --   ---xx   flac  0.6424  jgb1983-05-29s1t05.flac
     4:57.44       52494332 B   ---   --   ---xx   flac  0.6581  jgb1983-05-29s1t06.flac
    14:20.60      151845164 B   ---   --   ---xx   flac  0.6622  jgb1983-05-29s2t01.flac
    10:27.53      110727500 B   ---   --   ---xx   flac  0.6425  jgb1983-05-29s2t02.flac
    16:10.40      171202124 B   ---   --   ---xx   flac  0.6310  jgb1983-05-29s2t03.flac
     9:15.70       98066684 B   ---   --   ---xx   flac  0.6275  jgb1983-05-29s2t04.flac
    10:02.30      106263404 B   ---   --   ---xx   flac  0.6724  jgb1983-05-29s2t05.flac
     8:20.33       88277660 B   ---   --   ---xx   flac  0.6616  jgb1983-05-29s2t06.flac
   125:14.57     1325604192 B                            0.6440  (12 files)



More information about the bittorrent mailing list