[bittorrent] jg1983-05-28.145875.jgb.beyerm160.huston.miller.sirmick.flac16

Automated Mailer noreply-bt.e at etree.org
Fri Mar 29 12:53:49 UTC 2019


Band:           Garcia
Torrent Name:   jg1983-05-28.145875.jgb.beyerm160.huston.miller.sirmick.flac16
Uploaded by:    norm
DB Link:        
Details:        http://bt.etree.org/details.php?id=604895

Contact the seeder at http://db.etree.org/norm

If the link to this show does not work, it was probably removed for
being non-trade-friendly.

Description / text file:
-------------------------
141978 24 > 16 - same HASH served @ Lossless Legs

Jerry Garcia Band
Cape Cod Coliseum,
South Yarmouth, MA
05/28/1983


Source: Beyer M160 > Nakamichi 550 > Casette Master (Maxell UDXL-II) - Taped by Rudy Huston.
Transfer: Cassette Master  > Nakamichi CR-7A >  > wav 24/96 - Transferred by Charlie Miller
Lineage: wav 24/96 > Adobe Audition 3 > iZotope RX6 Advanced > iZotope Ozone 5 Advanced > CD Wave > TLH > Flac 24  

This file set is 16 bit @ 44.1

Set I

01   (How Sweet It Is) To Be Loved By You
02   They Love Each Other
03   Knockin' On Heaven's Door
04   I Second That Emotion
05   Gomorrah >
06   Run For The Roses


Set II

01   Rhapsody In Red
02   The Harder They Come
03   Don't Let Go
04   Dear Prudence
05   Tangled Up In Blue

encore

06   Midnight Moonlight




Jerry Garcia - guitar, vocals
John Kahn - bass
Melvin Seals - keyboards
Greg Errico - drums
Dee Dee Dickerson - backing vocals
Jaclyn LaBranch - backing vocals


Notes:

- Tape pauses and flips patched, I also patched on some crowd at the end of each set as they ended rather abruptly.  Source used shnid 108657 - Thank Steve Rolfe and Charlie.



Thank you Joe B. Jones for help with pitch correction, I used the above mentioned source on which Joe advised to correct this one.

Thanks to Rudy Huston for this source.

Thanks to Charlie Miller for yet another fine transfer.


edited and mastered
SIRMick
May 2018


shntool output:

    length     expanded size    cdr  WAVE problems  fmt   ratio  filename
     8:43.37       92344268 B   ---   --   ---xx   flac  0.6506  jgb1983-05-28s1t01.flac
     8:42.20       92127884 B   ---   --   ---xx   flac  0.6445  jgb1983-05-28s1t02.flac
    13:40.28      144713900 B   ---   --   ---xx   flac  0.6349  jgb1983-05-28s1t03.flac
    11:00.43      116525180 B   ---   --   ---xx   flac  0.6687  jgb1983-05-28s1t04.flac
     5:48.62       61533068 B   ---   --   ---xx   flac  0.6354  jgb1983-05-28s1t05.flac
     4:53.37       51772268 B   ---   --   ---xx   flac  0.6597  jgb1983-05-28s1t06.flac
    10:16.51      108782396 B   ---   --   ---xx   flac  0.6566  jgb1983-05-28s2t01.flac
    14:10.38      150029420 B   ---   --   ---xx   flac  0.6519  jgb1983-05-28s2t02.flac
    17:15.46      182682236 B   ---   --   ---xx   flac  0.6447  jgb1983-05-28s2t03.flac
    13:50.64      146562572 B   ---   --   ---xx   flac  0.6501  jgb1983-05-28s2t04.flac
    14:03.13      148735820 B   ---   --   ---xx   flac  0.6673  jgb1983-05-28s2t05.flac
     7:58.19       84363932 B   ---   --   ---xx   flac  0.6620  jgb1983-05-28s2t06.flac
   130:24.08     1380172944 B                            0.6520  (12 files)



More information about the bittorrent mailing list