[bittorrent] jg1982-11-13.145873.jgb.beyer.m600.mattes.hoey.flac16

Automated Mailer noreply-bt.e at etree.org
Fri Mar 29 04:01:07 UTC 2019


Band:           Garcia
Torrent Name:   jg1982-11-13.145873.jgb.beyer.m600.mattes.hoey.flac16
Uploaded by:    norm
DB Link:        
Details:        http://bt.etree.org/details.php?id=604891

Contact the seeder at http://db.etree.org/norm

If the link to this show does not work, it was probably removed for
being non-trade-friendly.

Description / text file:
-------------------------
143098 24 > 16 - same HASH served @ Lossless Legs

Jerry Garcia Band  Bushnell Auditorium Hartford CT 1982-11-13

Source: aud cassette master
Taped by Ted Mattes

Beyer M600 > Sony TCD-5 (No Dolby encoding)
Nakmichi Dragon > Thomas Mayer 10Y Preamp > QES Labs Pad II LE (A/D 96/24) > Bias Peak 7 OSX (edits, tracking) > xACT (flac, tagging)

This file set is 16 bit @ 44.1

30 second patch taken from Jim Wise source (shnid 33422) for the beginning of The Night They Drove Old Dixie Down.

Tracks:
set I
01 Intro 
02 How Sweet It Is
03 They Love Each Other
04 Valerie
05 Let It Rock
06 I Second That Emotion
07 Dear Prudence
08 Run For The Roses

set II
09 Mission In The Rain
10 The Harder They Come
11 Mystery Train
12 The Night They Drove Old Dixie Down
13 Tangled Up In Blue
encore:
14 Midnight Moonlight

    length     expanded size    cdr  WAVE problems  fmt   ratio  filename
     0:29.71        5282636 B   ---   --   ---xx   flac  0.5383  jgb1982-11-13 01.flac
    10:17.63      108987020 B   ---   --   ---xx   flac  0.6028  jgb1982-11-13 02.flac
     9:58.30      105557804 B   ---   --   ---xx   flac  0.5893  jgb1982-11-13 03.flac
     8:32.61       90460316 B   ---   --   ---xx   flac  0.6123  jgb1982-11-13 04.flac
     8:23.13       88759820 B   ---   --   ---xx   flac  0.6162  jgb1982-11-13 05.flac
    12:05.45      127995884 B   ---   --   ---xx   flac  0.6124  jgb1982-11-13 06.flac
    13:18.62      140913068 B   ---   --   ---xx   flac  0.5878  jgb1982-11-13 07.flac
     5:23.19       57021932 B   ---   --   ---xx   flac  0.6262  jgb1982-11-13 08.flac
    12:30.57      132434108 B   ---   --   ---xx   flac  0.6002  jgb1982-11-13 09.flac
    16:05.37      170313068 B   ---   --   ---xx   flac  0.6055  jgb1982-11-13 10.flac
     8:02.23       85078940 B   ---   --   ---xx   flac  0.6165  jgb1982-11-13 11.flac
    10:01.43      106117580 B   ---   --   ---xx   flac  0.5734  jgb1982-11-13 12.flac
    12:14.63      129625820 B   ---   --   ---xx   flac  0.6274  jgb1982-11-13 13.flac
     9:04.26       96022796 B   ---   --   ---xx   flac  0.6273  jgb1982-11-13 14.flac
   136:29.13     1444570792 B                            0.6059  (14 files)



More information about the bittorrent mailing list