[bittorrent] jg1980-07-27.145872.jgb.fob.nak700.cohen.miller.sirmick.flac16

Automated Mailer noreply-bt.e at etree.org
Fri Mar 29 02:09:50 UTC 2019


Band:           Garcia
Torrent Name:   jg1980-07-27.145872.jgb.fob.nak700.cohen.miller.sirmick.flac16
Uploaded by:    norm
DB Link:        
Details:        http://bt.etree.org/details.php?id=604890

Contact the seeder at http://db.etree.org/norm

If the link to this show does not work, it was probably removed for
being non-trade-friendly.

Description / text file:
-------------------------
Jerry Garcia Band
Palace Theater
Albany, NY
July 27, 1980


Source: Nak CM-700s (shotgun) > Sony TC-D > Cassette Master - Recorded by Mark Cohen (towards back of the floor with mics high on a pole)
Transfer: Cassette Master > Nakamichi DR-1 > Tascam DA-3000 (DSF 1-bit/5.6MHz) > dBpoweramp > WAV (24-bit/96k) - Transferred by Charlie Miller
Lineage: Wav > Adobe Audition 3 > iZotope RX7 Advanced > iZotope Ozone 5 Advanced > CD Wave > Flac 24

This file set is 16 bit @ 44.1

Set I

01   crowd/tuning
02   When I Paint My Masterpiece
03   Sitting Here In LImbo
04   Deal
05   Simple Twist Of Fate >
06   Tangled Up In Blue


Set II

01   crowd/tuning
02   Mission In The Rain
03   How Sweet It Is (To Be Loved By You)
04   I'll Take A Melody
05   Russian Lullaby >
06   Midnight Moonlight

encore

07   Sugaree




Jerry Garcia - guitar, vocals
John Kahn - bass
Ozzie Ahlers - keyboards
Greg Errico - drums



Notes:

- DC offset removed
- tape flips smoothed with crossfades.



Thanks to Mark Cohen for providing his masters.

Thanks to Charlie Miller for the transfer.


edited and mastered
SIRMick
January 2019


shntool output:

    length     expanded size    cdr  WAVE problems  fmt   ratio  filename
     1:23.14       14674172 B   ---   --   ---xx   flac  0.6061  jgb1980-07-27s1t01.flac
    12:57.73      137234540 B   ---   --   ---xx   flac  0.6597  jgb1980-07-27s1t02.flac
    12:57.01      137065196 B   ---   --   ---xx   flac  0.6487  jgb1980-07-27s1t03.flac
    11:21.30      120199004 B   ---   --   ---xx   flac  0.6521  jgb1980-07-27s1t04.flac
    16:41.11      176602316 B   ---   --   ---xx   flac  0.6011  jgb1980-07-27s1t05.flac
    10:18.24      109071692 B   ---   --   ---xx   flac  0.6779  jgb1980-07-27s1t06.flac
     0:17.38        3088220 B   ---   --   ---xx   flac  0.5791  jgb1980-07-27s2t01.flac
    14:32.29      153889052 B   ---   --   ---xx   flac  0.6357  jgb1980-07-27s2t02.flac
     8:48.33       93216860 B   ---   --   ---xx   flac  0.6631  jgb1980-07-27s2t03.flac
    14:38.10      154902764 B   ---   --   ---xx   flac  0.6278  jgb1980-07-27s2t04.flac
    13:59.35      148081964 B   ---   --   ---xx   flac  0.5900  jgb1980-07-27s2t05.flac
     8:24.34       88985612 B   ---   --   ---xx   flac  0.6751  jgb1980-07-27s2t06.flac
    12:06.05      128078204 B   ---   --   ---xx   flac  0.6502  jgb1980-07-27s2t07.flac
   138:25.37     1465089596 B                            0.6390  (13 files)



More information about the bittorrent mailing list