[bittorrent] jg1980-02-24.145870.jgb.fob.nak700.cohen.miller.sirmick.flac16

Automated Mailer noreply-bt.e at etree.org
Fri Mar 29 00:23:24 UTC 2019


Band:           Grateful Dead
Torrent Name:   jg1980-02-24.145870.jgb.fob.nak700.cohen.miller.sirmick.flac16
Uploaded by:    norm
DB Link:        
Details:        http://bt.etree.org/details.php?id=604889

Contact the seeder at http://db.etree.org/norm

If the link to this show does not work, it was probably removed for
being non-trade-friendly.

Description / text file:
-------------------------
Jerry Garcia Band
SUNY Gymnasium
Stony Brook, NY
1980-02-24

Source: 3 Nakamichi CM-700 shotguns > Sony TC-D5)* > Nakamichi 550 > Cassette Master - Taped by Mark Cohen, from in front of and slightly left of sbd
Transfer: Cassette Master > Nakamichi DR-1 > Tascam DA-3000 (DSF 1-bit/5.6MHz) > dBpoweramp > WAV (24-bit/96k) - Transferred by Charlie Miller
Lineage: Wav > Adobe Audition 3 > iZotope RX7 Advanced > iZotope Ozone 5 Advanced > CD Wave > Flac 24

This file set is 16 bit @ 44.1


Set I

01   tuning
02   Sugaree
03   Catfish John
04   How Sweet It Is (To Be Loved By You)
05   Sitting Here In Limbo
06   That's Alright Mama


Set II

01   tuning
02   That's What Love Will Make You Do
03   When I Paint My Masterpiece
04   Tore Up Over You
05   I'll Take A Melody
06   The Harder They Come

encore:

07   Midnight Moonlight




Jerry Garcia - guitar, vocals
John Kahn - bass
Ozzie Ahlers - keyboards
Johnny de Fonseca - drums


Notes:

- Mark was patched out of Barry Glassberg *


Thanks to Joe B. Jones for advice on pitch correction..

Thanks to Mark Cohen for lending his masters.

Thanks to Charlie Miller for the transfer.



edited and mastered
SIRMick
November 2018


shntool output:

    length     expanded size    cdr  WAVE problems  fmt   ratio  filename
     0:46.49        8229692 B   ---   --   ---xx   flac  0.5547  jgb1980-02-24s1t01.flac
    15:18.33      162012860 B   ---   --   ---xx   flac  0.5907  jgb1980-02-24s1t02.flac
    10:39.36      112804316 B   ---   --   ---xx   flac  0.5601  jgb1980-02-24s1t03.flac
    10:03.34      106449212 B   ---   --   ---xx   flac  0.5687  jgb1980-02-24s1t04.flac
    12:04.20      127760684 B   ---   --   ---xx   flac  0.5428  jgb1980-02-24s1t05.flac
     8:37.48       91311740 B   ---   --   ---xx   flac  0.6367  jgb1980-02-24s1t06.flac
     0:33.17        5861228 B   ---   --   ---xx   flac  0.5014  jgb1980-02-24s2t01.flac
    11:06.39      117574172 B   ---   --   ---xx   flac  0.5494  jgb1980-02-24s2t02.flac
     9:36.03      101613500 B   ---   --   ---xx   flac  0.5591  jgb1980-02-24s2t03.flac
    11:02.11      116802716 B   ---   --   ---xx   flac  0.5578  jgb1980-02-24s2t04.flac
    12:48.18      135517580 B   ---   --   ---xx   flac  0.5493  jgb1980-02-24s2t05.flac
    12:50.32      135903308 B   ---   --   ---xx   flac  0.5615  jgb1980-02-24s2t06.flac
     8:10.06       86450156 B   ---   --   ---xx   flac  0.6059  jgb1980-02-24s2t07.flac
   123:36.46     1308291164 B                            0.5688  (13 files)



More information about the bittorrent mailing list