[bittorrent] gd1994-10-17.145763.ots.sony.ecm909a.sterry.miller.noel.t-flac16

Automated Mailer noreply-bt.e at etree.org
Thu Mar 28 19:28:52 UTC 2019


Band:           Grateful Dead
Torrent Name:   gd1994-10-17.145763.ots.sony.ecm909a.sterry.miller.noel.t-flac16
Uploaded by:    norm
DB Link:        
Details:        http://bt.etree.org/details.php?id=604888

Contact the seeder at http://db.etree.org/norm

If the link to this show does not work, it was probably removed for
being non-trade-friendly.

Description / text file:
-------------------------
142979 24 > 16 - same HASH served @ Lossless Legs

Grateful Dead

October 17, 1994 
Madison Square Garden 
New York, NY
Sets I & II

George Sterry Recording:
Sony ECM-909A > Cassette Master (Sony TC-D3/TDK SA-X100)

Charlie Miller DSD Transfer:
Cassette Master (Nakamichi CR-7A)> Tascam DA-3000 (DSF 1-bit/5.6 MHz) > KORG AudioGate 4 > FLAC 24/96

Edited & Mastered by Joe Noel
Flac 24/96 > Audacity > Flac 24/96
August 16, 2018

This file set is 16 bit @ 44.1

Patch info:
- shnid 106249 (Schoeps)
- s1t06; 09:16 - end
- s1t07; start - 00:12
- s2t05; 10:55 - 11:15 & 11:48 - 12:17
- s2t09; 06:11 - 06:28 & 06:35 - end
- s2t10; start - 00:16

Notes:
- Thanks to George Sterry for recording the show
- Liberated from eBay by Charlie
- Thanks to Eliot Byron & Roger Jones for supplying the patch source
- some minor, sporadic distortion in left channel in both sets
* Eternity features Weir on acoustic guitar
* w/ Bob Dylan on acoustic guitar & vocals
- final Midnight Hour
- last (7/26/87) & final Rainy Day Women

- Set I -
s1t01 - tuning
s1t02 - Midnight Hour ->
s1t03 - Peggy O
s1t04 - New Minglewood Blues
s1t05 - Tennessee Jed
s1t06 - Eternity *
s1t07 - Friend of the Devil ->
s1t08 - Promised Land

- Set II -
s2t01 - tuning
s2t02 - Eyes of the World ->
s2t03 - Man Smart (Woman are Smarter)
s2t04 - Crazy Fingers ->
s2t05 - Estimated Prophet ->
s2t06 - Drums ->
s2t07 - Space -> 
s2t08 - The Wheel ->
s2t09 - All Along The Watchtower ->
s2t10 - Morning Dew
s2t11 - encore break - tuning
s2t12 - Rainy Day Women #12 and #35 *

Tagging notes:
Show information is embedded within the header of each flac file. 
It will display on any player capable of directly playing flac files. 
If converted to wav during processing, all tags will be stripped, 
however audio data will remain unaffected. If you must 
transcode to a lossy format, do so directly Flac > Lossy.
Use ffp or st5 to validate audio integrity.
Md5 values will change if tagging is altered.
[J.Noel 17 August 2018]

    length     expanded size    cdr  WAVE problems  fmt   ratio  filename
     1:43.20       18216284 B   ---   --   ---xx   flac  0.5724  gd94-10-17.s1t01.flac
     4:58.49       52682492 B   ---   --   ---xx   flac  0.6462  gd94-10-17.s1t02.flac
     6:55.36       73290716 B   ---   --   ---xx   flac  0.6148  gd94-10-17.s1t03.flac
     7:47.50       82496444 B   ---   --   ---xx   flac  0.6487  gd94-10-17.s1t04.flac
     7:54.51       83733596 B   ---   --   ---xx   flac  0.6386  gd94-10-17.s1t05.flac
    10:44.12      113629868 B   ---   --   ---xx   flac  0.6105  gd94-10-17.s1t06.flac
     7:16.38       76999820 B   ---   --   ---xx   flac  0.6358  gd94-10-17.s1t07.flac
     4:56.06       52228556 B   ---   --   ---xx   flac  0.6687  gd94-10-17.s1t08.flac
     1:02.32       11012108 B   ---   --   ---xx   flac  0.5822  gd94-10-17.s2t01.flac
    25:21.58      268440860 B   ---   --   ---xx   flac  0.6218  gd94-10-17.s2t02.flac
     7:24.26       78382796 B   ---   --   ---xx   flac  0.6471  gd94-10-17.s2t03.flac
     7:19.47       77550188 B   ---   --   ---xx   flac  0.6096  gd94-10-17.s2t04.flac
    12:59.54      137542652 B   ---   --   ---xx   flac  0.6307  gd94-10-17.s2t05.flac
    13:33.22      143464988 B   ---   --   ---xx   flac  0.5657  gd94-10-17.s2t06.flac
    14:52.33      157426460 B   ---   --   ---xx   flac  0.5673  gd94-10-17.s2t07.flac
     6:52.49       72792092 B   ---   --   ---xx   flac  0.6288  gd94-10-17.s2t08.flac
     6:50.16       72361676 B   ---   --   ---xx   flac  0.6464  gd94-10-17.s2t09.flac
    11:48.11      124917116 B   ---   --   ---xx   flac  0.6270  gd94-10-17.s2t10.flac
     1:56.58       20598860 B   ---   --   ---xx   flac  0.6273  gd94-10-17.s2t11.flac
     4:44.60       50238764 B   ---   --   ---xx   flac  0.6832  gd94-10-17.s2t12.flac
   167:02.53     1768006336 B                            0.6201  (20 files)



More information about the bittorrent mailing list