[bittorrent] gd1995-06-18.145846.sony.ecm909a.sterry.beckwith.miller.sirmick.flac16

Automated Mailer noreply-bt.e at etree.org
Wed Mar 27 12:14:07 UTC 2019


Band:           Grateful Dead
Torrent Name:   gd1995-06-18.145846.sony.ecm909a.sterry.beckwith.miller.sirmick.flac16
Uploaded by:    norm
DB Link:        
Details:        http://bt.etree.org/details.php?id=604875

Contact the seeder at http://db.etree.org/norm

If the link to this show does not work, it was probably removed for
being non-trade-friendly.

Description / text file:
-------------------------
143092 24 > 16 - same HASH served @ Lossless Legs

Grateful Dead
Giants Stadium
East Rutherford, NJ
6/18/95


Source: Sony ECM-909A > Sony WM-D3 > Cassette Master (Maxell XL-II90) - Recorded by George Sterry
Transfer: Cassette Master > Nakamichi DR-1 > Tascam DA-3000 (DSF 1-bit/5.6MHz) > KORG AudioGate 4 > wav 24/96k - Transferred by Charlie miller
Lineage: wav 24/96 > Adobe Audition 3 > iZotope RX6 Advanced > iZotope Ozone 5 Advanced > CD Wave > Flac 24

This file set is 16 bit @ 44.1

Set I

01   crowd/tuning
02   Feel Like A Stranger
03   Bertha
04   The Same Thing
05   Stagger Lee
06   Eternity
07   Deal


Set II

01   China Cat Sunflower > 
02   I Know You Rider
03   Way To Go Home
04   Samson And Delilah
05   Eyes Of The World > 
06   Drums > 
07   Space > 
08   Spanish Jam > 
09   I Need A Miracle > 
10   Wharf Rat > 
11   Not Fade Away
12   ~~encore break~~

encore

13   Lucy In The Sky With Diamonds


Notes:

- Pitch corrected
- The following patches have been made using shnid 2543 - Thank you Jeff M.
   
Stagger Lee - last 49 seconds
Eternity - first 4 seconds
China Cat Sunflower - first 20 seconds
Space - 1:20-1:46, 6:10-6:23
encore break o:14- 1:50


Thanks to George Sterry for taping.

Thanks to David Beckwith for liberating the tapes from eBay.

Thanks to Charlie Miller for the transfer.


edited and mastered
SIRMick
September 2018


shntool output:

    length     expanded size    cdr  WAVE problems  fmt   ratio  filename
     3:22.43       35733980 B   ---   --   ---xx   flac  0.6307  gd1995-06-18s1t01.flac
    10:13.29      108201452 B   ---   --   ---xx   flac  0.6275  gd1995-06-18s1t02.flac
     6:02.04       63866252 B   ---   --   ---xx   flac  0.6445  gd1995-06-18s1t03.flac
     8:57.34       94806812 B   ---   --   ---xx   flac  0.6142  gd1995-06-18s1t04.flac
     8:43.23       92311340 B   ---   --   ---xx   flac  0.6055  gd1995-06-18s1t05.flac
    10:10.03      107611100 B   ---   --   ---xx   flac  0.6284  gd1995-06-18s1t06.flac
    10:01.72      106185788 B   ---   --   ---xx   flac  0.6382  gd1995-06-18s1t07.flac
     6:44.46       71373836 B   ---   --   ---xx   flac  0.6167  gd1995-06-18s2t01.flac
     5:40.01       59978396 B   ---   --   ---xx   flac  0.6333  gd1995-06-18s2t02.flac
     7:19.74       77613692 B   ---   --   ---xx   flac  0.6099  gd1995-06-18s2t03.flac
     7:24.65       78474524 B   ---   --   ---xx   flac  0.6181  gd1995-06-18s2t04.flac
    11:26.47      121120988 B   ---   --   ---xx   flac  0.6062  gd1995-06-18s2t05.flac
    12:18.64      130333772 B   ---   --   ---xx   flac  0.5868  gd1995-06-18s2t06.flac
    12:27.08      131789660 B   ---   --   ---xx   flac  0.5827  gd1995-06-18s2t07.flac
     3:15.03       34405100 B   ---   --   ---xx   flac  0.6142  gd1995-06-18s2t08.flac
     5:37.55       59576204 B   ---   --   ---xx   flac  0.6282  gd1995-06-18s2t09.flac
    11:12.46      118649036 B   ---   --   ---xx   flac  0.5961  gd1995-06-18s2t10.flac
     8:11.44       86715932 B   ---   --   ---xx   flac  0.6268  gd1995-06-18s2t11.flac
     2:23.59       25364012 B   ---   --   ---xx   flac  0.5704  gd1995-06-18s2t12.flac
     4:20.29       45932252 B   ---   --   ---xx   flac  0.6311  gd1995-06-18s2t13.flac
   155:53.74     1650044128 B                            0.6138  (20 files)



More information about the bittorrent mailing list