[bittorrent] gd1995-06-15.145838.sony.ecm909a.sterry.beckwith.miller.sirmick.flac16

Automated Mailer noreply-bt.e at etree.org
Tue Mar 26 12:53:48 UTC 2019


Band:           Grateful Dead
Torrent Name:   gd1995-06-15.145838.sony.ecm909a.sterry.beckwith.miller.sirmick.flac16
Uploaded by:    norm
DB Link:        
Details:        http://bt.etree.org/details.php?id=604862

Contact the seeder at http://db.etree.org/norm

If the link to this show does not work, it was probably removed for
being non-trade-friendly.

Description / text file:
-------------------------
Grateful Dead
Franklin County Airport
Highgate, VT
6/15/95


Source: Sony ECM-909A > Sony WM-D3 > Cassette Master (Maxell XL-II90) - Recorded by George Sterry *
Transfer: Cassette Master > Nakamichi DR-1 > Tascam DA-3000 (DSF 1-bit/5.6MHz) > KORG AudioGate 4 > wav 24/96k - Transferred by Charlie Miller
Lineage: wav 24/96 > Adobe Audition 3 > iZotope RX6 Advanced > iZotope Ozone 5 Advanced > CD Wave > Flac 24

This file set is 16 bit @ 44.1

Set I

01   Touch Of Grey
02   Wang Dang Doodle
03   Peggy-O
04   El Paso
05   Ramble On Rose
06   Black Throated Wind PATCHED
07   Loose Lucy >
The Promised Land


Set II

01   tuning
02   Here Comes Sunshine
03   Samba In The Rain
04   Truckin' > 
05   Rollin' And Tumblin' > 
06   That Would Be Something >
07   He's Gone > 
08   Drums >
09   Space > 
10   Box Of Rain > 
11   Standing On The Moon >
12   Sugar Magnolia

encore

13   Liberty



Notes:-

- The first two tracks of Set II may be from a different source.
- There was a left channel dropout during "The Promised Land", the right channel has been copied over making it mono.
- There were a significant number of static like noises in the left channel most of which have been removed..
- The levels at the start of Set II were all messed and have been corrected.
- The following patches have been made using shnid 135288 - Thank you Doug Lamarre and Rob Berger.

"Touch Of Grey" - first 3 seconds
"Black Throated Wind" - 1:20-end
"That Would Be Something" - 0:12:41-0: 20:00
"Drums" - 10:40:00-11:28:7
"Standing On The Moon" - 0:20:00-0:36:8
"Sugar Magnolia" - 9:16:7-9:20.0

- Pitch corrected.



Thanks to George Sterry for taping.

Thanks to David Beckwith for liberating the tapes from eBay.

Thanks to Charlie Miller for the transfer.


edited and mastered
SIRMick
September 2018


shntool output:

    length     expanded size    cdr  WAVE problems  fmt   ratio  filename
     7:27.68       79010780 B   ---   --   ---xx   flac  0.6056  gd1995-06-15s1t01.flac
     7:25.46       78606236 B   ---   --   ---xx   flac  0.5948  gd1995-06-15s1t02.flac
     7:44.62       81995468 B   ---   --   ---xx   flac  0.5647  gd1995-06-15s1t03.flac
     6:53.64       73003772 B   ---   --   ---xx   flac  0.5775  gd1995-06-15s1t04.flac
     8:56.63       94698620 B   ---   --   ---xx   flac  0.5733  gd1995-06-15s1t05.flac
     7:49.02       82736348 B   ---   --   ---xx   flac  0.5662  gd1995-06-15s1t06.flac
     7:23.58       78281660 B   ---   --   ---xx   flac  0.5899  gd1995-06-15s1t07.flac
     4:52.72       51678188 B   ---   --   ---xx   flac  0.4678  gd1995-06-15s1t08.flac
     0:39.05        6891404 B   ---   --   ---xx   flac  0.6276  gd1995-06-15s2t01.flac
     7:32.66       79888076 B   ---   --   ---xx   flac  0.6203  gd1995-06-15s2t02.flac
     6:37.23       70084940 B   ---   --   ---xx   flac  0.6098  gd1995-06-15s2t03.flac
     8:06.37       85817468 B   ---   --   ---xx   flac  0.6064  gd1995-06-15s2t04.flac
     4:29.10       47475164 B   ---   --   ---xx   flac  0.5955  gd1995-06-15s2t05.flac
     2:24.46       25509836 B   ---   --   ---xx   flac  0.5583  gd1995-06-15s2t06.flac
    10:35.53      112138700 B   ---   --   ---xx   flac  0.5553  gd1995-06-15s2t07.flac
    14:00.13      148206620 B   ---   --   ---xx   flac  0.5523  gd1995-06-15s2t08.flac
    14:34.59      154312412 B   ---   --   ---xx   flac  0.5374  gd1995-06-15s2t09.flac
     4:47.44       50730332 B   ---   --   ---xx   flac  0.5574  gd1995-06-15s2t10.flac
     8:44.43       92534780 B   ---   --   ---xx   flac  0.5791  gd1995-06-15s2t11.flac
     9:32.01      100903196 B   ---   --   ---xx   flac  0.6055  gd1995-06-15s2t12.flac
     5:53.51       62389196 B   ---   --   ---xx   flac  0.5907  gd1995-06-15s2t13.flac
   156:32.61     1656893196 B                            0.5749  (21 files)



More information about the bittorrent mailing list