[bittorrent] Widespread Panic Capitol Theater Port Chester, New York 3/24/2019 (Schoeps MK4V'S FOB)

Automated Mailer noreply-bt.e at etree.org
Mon Mar 25 07:55:46 UTC 2019


Band:           Widespread Panic
Torrent Name:   Widespread Panic Capitol Theater Port Chester, New York 3/24/2019 (Schoeps MK4V'S FOB)
Uploaded by:    zmanatl
DB Link:        
Details:        http://bt.etree.org/details.php?id=604849

Contact the seeder at http://db.etree.org/zmanatl

If the link to this show does not work, it was probably removed for
being non-trade-friendly.

Description / text file:
-------------------------
Widespread Panic
Capitol Theater
Port Chester, New York
3/24/2019 

Source: Schoeps MK4V'S>CMC6>Lunatec V2>Sound Devices 722 (24/44.1)
FOB/DFC/KFC/ZFC/AARP 35' From Stage, 7' High
DSP: Sound Devices 722>Sound Forge 10.0>CD Wave>flac(16)
ID3 Tagged In Foobar 2000
Recorded By: Z-Man
Seeded By: Z-Man 

Disc I 1st Set

01 Greeting
02 Holden Oversoul >
03 Makes Sense To Me 
04 Let’s Get Down To Business
05 Little Lilly >
06 Airplane >
07 Take-Off Jam >
08 Jaded Tourist
09 Blue Indian
10 The Last Straw>
11 Life During Wartime

Disc II 2nd Set

01 Lawyers, Guns, And Money >
02 Little Kin >
03 Love Tractor
04 I’m Not Alone 
05 North
06 One Kind Favor >
07 Bust It Big >

Disc III 2nd Set. Con’t 

01 Mercy >
02 The Other One Jam >
03 I’m So Glad  
04 Postcard
05 Ain’t Life Grand
Encore:
06 This Part Of Town >
07 Low Spark Of High-Healed Boys >
08 Disco >
09 Low Spark Of High-Heeled Boys
10 No Sugar Tonight >
11 New Mother Nature 

wsp2019-03-24d01t01.flac:06046a629c1291a1436808f7e6507c6e
wsp2019-03-24d01t02.flac:369a69ec671497772732e10f0f1defea
wsp2019-03-24d01t03.flac:a4bcef082937935b974ea06bcd6984ab
wsp2019-03-24d01t04.flac:310fb5c31bc80151f7c88f1a7c92ea84
wsp2019-03-24d01t05.flac:14bb8b5fce5b2d5ceffbd5d1609e1d3d
wsp2019-03-24d01t06.flac:debce18fd0ea47c9d5d4c5c59023695d
wsp2019-03-24d01t07.flac:c4871599c44bae3df5e9330e8a35b918
wsp2019-03-24d01t08.flac:f814ad3c5f7031dc1d7c7c33c038a29f
wsp2019-03-24d01t09.flac:4f02210710148bb6e8865affea199e1a
wsp2019-03-24d01t10.flac:88f1ec917f42aed384f14d931434841b
wsp2019-03-24d01t11.flac:9f11a8e075d3fc0c8853c44d9cebbbc1
wsp2019-03-24d02t01.flac:42dba13ed92af51a0fa923fa807be086
wsp2019-03-24d02t02.flac:662b2b90ba52ea34d665d7c577543c8b
wsp2019-03-24d02t03.flac:74af18cf96d99ab5528edfc2acbc1e11
wsp2019-03-24d02t04.flac:fa952d6d0b57dd6a2f930e0b8202c2e2
wsp2019-03-24d02t05.flac:3411d1a5b6d07f0f1b485f85668e9ad1
wsp2019-03-24d02t06.flac:96cbc51ef3631cf92ce1cb8ed6fc6ab4
wsp2019-03-24d02t07.flac:784c0d7c3531ad950ecafd5265ff8acd
wsp2019-03-24d03t01.flac:0d78115a90a0ec42c1e08593de16eb3d
wsp2019-03-24d03t02.flac:68e46bc4fd678dc3dfcfc25702a6fe3d
wsp2019-03-24d03t03.flac:773f0a26e718bf065f865d4303db8e66
wsp2019-03-24d03t04.flac:18c8f1150497a7b1f578cd989476fe54
wsp2019-03-24d03t05.flac:8ae76374764fa62c270e5cb23707600a
wsp2019-03-24d03t06.flac:0268117e745091028eef472960839e4c
wsp2019-03-24d03t07.flac:2c3841b153db2cd0821577fa9c4a8218
wsp2019-03-24d03t08.flac:c05ff2768f9816ec15149fd84500ddda
wsp2019-03-24d03t09.flac:38024a06335cbb825c323c23e2028f38
wsp2019-03-24d03t10.flac:9fb8533fb7e96e68675e91d9a4728504
wsp2019-03-24d03t11.flac:0f023c396ddb16eb3d5df9c9e9649548

 length     expanded size    cdr  WAVE problems  fmt   ratio  filename
     0:24.34        4313612 B   ---   --   ---xx   flac  0.3592  wsp2019-03-24d01t01.flac
     9:42.38      102754220 B   ---   --   ---xx   flac  0.5201  wsp2019-03-24d01t02.flac
     5:00.53       53044700 B   ---   --   ---xx   flac  0.5246  wsp2019-03-24d01t03.flac
     3:14.00       34221644 B   ---   --   ---xx   flac  0.5137  wsp2019-03-24d01t04.flac
     9:44.60      103158764 B   ---   --   ---xx   flac  0.4838  wsp2019-03-24d01t05.flac
     6:00.33       63581660 B   ---   --   ---xx   flac  0.4955  wsp2019-03-24d01t06.flac
     2:38.43       27972380 B   ---   --   ---xx   flac  0.5353  wsp2019-03-24d01t07.flac
     7:02.72       74610188 B   ---   --   ---xx   flac  0.5284  wsp2019-03-24d01t08.flac
     6:09.00       65091644 B   ---   --   ---xx   flac  0.4322  wsp2019-03-24d01t09.flac
     8:46.73       92958140 B   ---   --   ---xx   flac  0.4827  wsp2019-03-24d01t10.flac
     7:01.60       74405564 B   ---   --   ---xx   flac  0.5607  wsp2019-03-24d01t11.flac
     3:35.49       38041292 B   ---   --   ---xx   flac  0.5492  wsp2019-03-24d02t01.flac
     7:05.18       75012380 B   ---   --   ---xx   flac  0.5519  wsp2019-03-24d02t02.flac
     6:23.40       67655324 B   ---   --   ---xx   flac  0.5534  wsp2019-03-24d02t03.flac
     7:07.43       75423980 B   ---   --   ---xx   flac  0.4763  wsp2019-03-24d02t04.flac
     9:26.20       99889484 B   ---   --   ---xx   flac  0.5664  wsp2019-03-24d02t05.flac
    11:45.67      124519628 B   ---   --   ---xx   flac  0.4878  wsp2019-03-24d02t06.flac
    12:30.00      132300044 B   ---   --   ---xx   flac  0.5490  wsp2019-03-24d02t07.flac
     5:04.05       53637404 B   ---   --   ---xx   flac  0.4678  wsp2019-03-24d03t01.flac
     5:33.49       58856492 B   ---   --   ---xx   flac  0.5131  wsp2019-03-24d03t02.flac
     6:42.40       71006924 B   ---   --   ---xx   flac  0.5553  wsp2019-03-24d03t03.flac
     4:21.57       46174508 B   ---   --   ---xx   flac  0.5563  wsp2019-03-24d03t04.flac
     4:34.03       48340700 B   ---   --   ---xx   flac  0.5569  wsp2019-03-24d03t05.flac
     5:44.70       60846284 B   ---   --   ---xx   flac  0.4993  wsp2019-03-24d03t06.flac
     4:09.60       44064764 B   ---   --   ---xx   flac  0.4582  wsp2019-03-24d03t07.flac
     5:59.07       63344108 B   ---   --   ---xx   flac  0.5593  wsp2019-03-24d03t08.flac
     3:43.29       39405452 B   ---   --   ---xx   flac  0.4775  wsp2019-03-24d03t09.flac
     2:35.50       27459644 B   ---   --   ---xx   flac  0.5111  wsp2019-03-24d03t10.flac
     5:37.33       59524460 B   ---   --   ---xx   flac  0.5297  wsp2019-03-24d03t11.flac
   177:46.56     1881615388 B                            0.5178  (29 files)





More information about the bittorrent mailing list