[bittorrent] Mike Gordon - 2019-03-23 - The Sinclair - Cambride, MA - DPA 4011 > Zoom F8 **2448**

Automated Mailer noreply-bt.e at etree.org
Mon Mar 25 01:28:03 UTC 2019


Band:           Mike Gordon
Torrent Name:   Mike Gordon - 2019-03-23 - The Sinclair - Cambride, MA - DPA 4011 > Zoom F8 **2448**
Uploaded by:    bvaz
DB Link:        
Details:        http://bt.etree.org/details.php?id=604846

Contact the seeder at http://db.etree.org/bvaz

If the link to this show does not work, it was probably removed for
being non-trade-friendly.

Description / text file:
-------------------------
Mike Gordon
2019-03-23
The Sinclair
Cambridge, MA

DPA 4011 > Zoom F8 (24/48k)
SDHC Card > Sound Forge Pro 2.5 (fades, tracking) > xAct (Flac level 8, tagging)
clamped from balcony, aimed at stacks, slightly ROC

Taped and Transferred by Brian V.

Set 1

01. Whirlwind
02. Equilibrium
03. crowd/banter
04. Sleep To Dream >
05. My Favorite Mistake
06. Tropical Rocket
07. Noon To Noon
08. banter
09. Angatta &
10. banter
11. Sughn Never Sets

Set 2

01. I Am Random
02. Trey Anastasio intro
03. Victim >
04. Peel
05. Got To Be More Careful
06. Acid Man >
07. Are You A Hypnotist??
08. crowd
09. Crazy Sometimes
10. How Many People Are You
11. encore break
12. Sweet Emotion

& with Mike and Tessa (his daughter) tossing out “I Am Random” pins to the crowd
Trey Anastaio on guitar in Set 2 starting with Victim through the encore

***Support Bands That Allow Taping/Trading***

shntool output
    length     expanded size    cdr  WAVE problems  fmt   ratio  filename
     9:13.909     159525932 B   cxx   --   -----    wav  1.0000  mikegordon2019-03-23s1t01.wav
     6:11.691     107046956 B   cxx   --   -----    wav  1.0000  mikegordon2019-03-23s1t02.wav
     0:32.216       9278252 B   cxx   --   -----    wav  1.0000  mikegordon2019-03-23s1t03.wav
     7:51.272     135726380 B   cxx   --   -----    wav  1.0000  mikegordon2019-03-23s1t04.wav
     5:38.293      97428524 B   cxx   --   -----    wav  1.0000  mikegordon2019-03-23s1t05.wav
     4:58.443      85951532 B   cxx   --   -----    wav  1.0000  mikegordon2019-03-23s1t06.wav
     9:48.267     169420844 B   cxx   --   -----    wav  1.0000  mikegordon2019-03-23s1t07.wav
     1:17.705      22379180 B   cxx   --   -----    wav  1.0000  mikegordon2019-03-23s1t08.wav
     7:15.692     125479340 B   cxx   --   -----    wav  1.0000  mikegordon2019-03-23s1t09.wav
     2:54.020      50117804 B   cxx   --   -----    wav  1.0000  mikegordon2019-03-23s1t10.wav
     9:48.007     169345964 B   cxx   --   -----    wav  1.0000  mikegordon2019-03-23s1t11.wav
     5:38.976      97625132 B   cxx   --   -----    wav  1.0000  mikegordon2019-03-23s2t01.wav
     1:01.584      17736236 B   cxx   --   -----    wav  1.0000  mikegordon2019-03-23s2t02.wav
     7:48.800     135014444 B   cxx   --   -----    wav  1.0000  mikegordon2019-03-23s2t03.wav
    12:12.475     210952748 B   cxx   --   -----    wav  1.0000  mikegordon2019-03-23s2t04.wav
    10:50.709     187404332 B   cxx   --   -----    wav  1.0000  mikegordon2019-03-23s2t05.wav
     8:13.536     142138412 B   cxx   --   -----    wav  1.0000  mikegordon2019-03-23s2t06.wav
     8:30.411     146998316 B   cxx   --   -----    wav  1.0000  mikegordon2019-03-23s2t07.wav
     1:16.949      22161452 B   cxx   --   -----    wav  1.0000  mikegordon2019-03-23s2t08.wav
     9:11.515     158836268 B   cxx   --   -----    wav  1.0000  mikegordon2019-03-23s2t09.wav
    11:10.949     193233452 B   cxx   --   -----    wav  1.0000  mikegordon2019-03-23s2t10.wav
     2:22.300      40982444 B   cxx   --   -----    wav  1.0000  mikegordon2019-03-23s2t11.wav
     5:49.764     100732076 B   cxx   --   -----    wav  1.0000  mikegordon2019-03-23s2t12.wav
   149:37.483    2585516020 B                            1.0000  (23 files)



More information about the bittorrent mailing list