[bittorrent] Club d'Elf - 2019-03-22 - Lizard Lounge - Cambridge, MA - DPA 4011 + AKG C414 + SBD > Zoom F8 **2448**

Automated Mailer noreply-bt.e at etree.org
Mon Mar 25 01:05:14 UTC 2019


Band:           Club d'Elf
Torrent Name:   Club d'Elf - 2019-03-22 - Lizard Lounge - Cambridge, MA - DPA 4011 + AKG C414 + SBD > Zoom F8 **2448**
Uploaded by:    bvaz
DB Link:        
Details:        http://bt.etree.org/details.php?id=604844

Contact the seeder at http://db.etree.org/bvaz

If the link to this show does not work, it was probably removed for
being non-trade-friendly.

Description / text file:
-------------------------
Club d'Elf
2019-03-22
Lizard Lounge
Cambridge, MA

DPA 4011 + AKG C414-XLS (subcards) + SBD > Zoom F8 (24/48k)
SDHC Card > Sound Forge Pro 2.5 (fades, tracking) > xAct (Flac level 8, tagging)
on-stage. DPAs were ORTF slightly LOC and AKGs were DIN split 2’ slightly LOC

Taped and Transferred by Brian V.

Set 1

01. intro
02. Power Plant
03. Flies in a Jar
04. Instar
05. Tingler
06. Second Line
07. Sand
08. band intros

Set 2

01. C# Song
02. Loon & Thrush
03. Conquistador
04. Big Light in the Sky
05. band intros
06. Masada
07. band intros/outro

Geoff Scott (guitar)
Tom Hall (sax)
Mister Rourke (turntables)
Mike Rivard (bass & sintir)
Yahuba Garcia-Torres (congas)
Dean Johnston (drums)

thanks to Mark for the SBD feed

***Support Bands That Allow Taping/Trading*** 

shntool output
    length     expanded size    cdr  WAVE problems  fmt   ratio  filename
     0:12.864       3704876 B   cxx   --   -----    wav  1.0000  delf2019-03-22s1t01.wav
    20:06.805     347559980 B   cxx   --   -----    wav  1.0000  delf2019-03-22s1t02.wav
     9:48.299     169430060 B   cxx   --   -----    wav  1.0000  delf2019-03-22s1t03.wav
    12:35.275     217519148 B   cxx   --   -----    wav  1.0000  delf2019-03-22s1t04.wav
    26:32.533     458649644 B   cxx   --   -----    wav  1.0000  delf2019-03-22s1t05.wav
    12:25.728     214769708 B   cxx   --   -----    wav  1.0000  delf2019-03-22s1t06.wav
     9:30.576     164325932 B   cxx   --   -----    wav  1.0000  delf2019-03-22s1t07.wav
     2:13.648      38490668 B   cxx   --   -----    wav  1.0000  delf2019-03-22s1t08.wav
    17:36.460     304260524 B   cxx   --   -----    wav  1.0000  delf2019-03-22s2t01.wav
     8:33.524     147894956 B   cxx   --   -----    wav  1.0000  delf2019-03-22s2t02.wav
     8:09.920     141097004 B   cxx   --   -----    wav  1.0000  delf2019-03-22s2t03.wav
    13:47.520     23Club d'Elf
2019-03-22
Lizard Lounge
Cambridge, MA

DPA 4011 + AKG C414-XLS (subcards) + SBD > Zoom F8 (24/48k)
SDHC Card > Sound Forge Pro 2.5 (fades, tracking) > xAct (Flac level 8, tagging)
on-stage. DPAs were ORTF slightly LOC and AKGs were DIN split 2’ slightly LOC

Taped and Transferred by Brian V.

Set 1

01. intro
02. Power Plant
03. Flies in a Jar
04. Instar
05. Tingler
06. Second Line
07. Sand
08. band intros

Set 2

01. C# Song
02. Loon & Thrush
03. Conquistador
04. Big Light in the Sky
05. band intros
06. Masada
07. band intros/outro

Geoff Scott (guitar)
Tom Hall (sax)
Mister Rourke (turntables)
Mike Rivard (bass & sintir)
Yahuba Garcia-Torres (congas)
Dean Johnston (drums)

thanks to Mark for the SBD feed

***Support Bands That Allow Taping/Trading*** 

shntool output
    length     expanded size    cdr  WAVE problems  fmt   ratio  filename
     0:12.864       3704876 B   cxx   --   -----    wav  1.0000  delf2019-03-22s1t01.wav
    20:06.805     347559980 B   cxx   --   -----    wav  1.0000  delf2019-03-22s1t02.wav
     9:48.299     169430060 B   cxx   --   -----    wav  1.0000  delf2019-03-22s1t03.wav
    12:35.275     217519148 B   cxx   --   -----    wav  1.0000  delf2019-03-22s1t04.wav
    26:32.533     458649644 B   cxx   --   -----    wav  1.0000  delf2019-03-22s1t05.wav
    12:25.728     214769708 B   cxx   --   -----    wav  1.0000  delf2019-03-22s1t06.wav
     9:30.576     164325932 B   cxx   --   -----    wav  1.0000  delf2019-03-22s1t07.wav
     2:13.648      38490668 B   cxx   --   -----    wav  1.0000  delf2019-03-22s1t08.wav
    17:36.460     304260524 B   cxx   --   -----    wav  1.0000  delf2019-03-22s2t01.wav
     8:33.524     147894956 B   cxx   --   -----    wav  1.0000  delf2019-03-22s2t02.wav
     8:09.920     141097004 B   cxx   --   -----    wav  1.0000  delf2019-03-22s2t03.wav
    13:47.520     238325804 B   cxx   --   -----    wav  1.0000  delf2019-03-22s2t04.wav
     1:29.776      25855532 B   cxx   --   -----    wav  1.0000  delf2019-03-22s2t05.wav
     9:57.832     172175660 B   cxx   --   -----    wav  1.0000  delf2019-03-22s2t06.wav
     0:30.365       8745260 B   cxx   --   -----    wav  1.0000  delf2019-03-22s2t07.wav
   153:31.125    2652804756 B                            1.0000  (15 files)Club d'Elf
2019-03-22
Lizard Lounge
Cambridge, MA

DPA 4011 + AKG C414-XLS (subcards) + SBD > Zoom F8 (24/48k)
SDHC Card > Sound Forge Pro 2.5 (fades, tracking) > xAct (Flac level 8, tagging)
on-stage. DPAs were ORTF slightly LOC and AKGs were DIN split 2’ slightly LOC

Taped and Transferred by Brian V.

Set 1

01. intro
02. Power Plant
03. Flies in a Jar
04. Instar
05. Tingler
06. Second Line
07. Sand
08. band intros

Set 2

01. C# Song
02. Loon & Thrush
03. Conquistador
04. Big Light in the Sky
05. band intros
06. Masada
07. band intros/outro

Geoff Scott (guitar)
Tom Hall (sax)
Mister Rourke (turntables)
Mike Rivard (bass & sintir)
Yahuba Garcia-Torres (congas)
Dean Johnston (drums)

thanks to Mark for the SBD feed

***Support Bands That Allow Taping/Trading*** 

shntool output
    length     expanded size    cdr  WAVE problems  fmt   ratio  filename
     0:12.864       3704876 B   cxx   --   -----    wav  1.0000  delf2019-03-22s1t01.wav
    20:06.805     347559980 B   cxx   --   -----    wav  1.0000  delf2019-03-22s1t02.wav
     9:48.299     169430060 B   cxx   --   -----    wav  1.0000  delf2019-03-22s1t03.wav
    12:35.275     217519148 B   cxx   --   -----    wav  1.0000  delf2019-03-22s1t04.wav
    26:32.533     458649644 B   cxx   --   -----    wav  1.0000  delf2019-03-22s1t05.wav
    12:25.728     214769708 B   cxx   --   -----    wav  1.0000  delf2019-03-22s1t06.wav
     9:30.576     164325932 B   cxx   --   -----    wav  1.0000  delf2019-03-22s1t07.wav
     2:13.648      38490668 B   cxx   --   -----    wav  1.0000  delf2019-03-22s1t08.wav
    17:36.460     304260524 B   cxx   --   -----    wav  1.0000  delf2019-03-22s2t01.wav
     8:33.524     147894956 B   cxx   --   -----    wav  1.0000  delf2019-03-22s2t02.wav
     8:09.920     141097004 B   cxx   --   -----    wav  1.0000  delf2019-03-22s2t03.wav
    13:47.520     238325804 B   cxx   --   -----    wav  1.0000  delf2019-03-22s2t04.wav
     1:29.776      25855532 B   cxx   --   -----    wav  1.0000  delf2019-03-22s2t05.wav
     9:57.832     172175660 B   cxx   --   -----    wav  1.0000  delf2019-03-22s2t06.wav
     0:30.365       8745260 B   cxx   --   -----    wav  1.0000  delf2019-03-22s2t07.wav
   153:31.125    2652804756 B                            1.0000  (15 files)8325804 B   cxx   --   -----    wav  1.0000  delf2019-03-22s2t04.wav
     1:29.776      25855532 B   cxx   --   -----    wav  1.0000  delf2019-03-22s2t05.wav
     9:57.832     172175660 B   cxx   --   -----    wav  1.0000  delf2019-03-22s2t06.wav
     0:30.365       8745260 B   cxx   --   -----    wav  1.0000  delf2019-03-22s2t07.wav
   153:31.125    2652804756 B                            1.0000  (15 files)



More information about the bittorrent mailing list