[bittorrent] Widespread Panic Capitol Theater Port Chester, New York 3/23/2019 (Schoeps MK4V'S FOB)

Automated Mailer noreply-bt.e at etree.org
Sun Mar 24 07:51:47 UTC 2019


Band:           Widespread Panic
Torrent Name:   Widespread Panic Capitol Theater Port Chester, New York 3/23/2019 (Schoeps MK4V'S FOB)
Uploaded by:    zmanatl
DB Link:        
Details:        http://bt.etree.org/details.php?id=604831

Contact the seeder at http://db.etree.org/zmanatl

If the link to this show does not work, it was probably removed for
being non-trade-friendly.

Description / text file:
-------------------------
Widespread Panic
Capitol Theater
Port Chester, New York
3/23/2019 

Source: Schoeps MK4V'S>CMC6>Lunatec V2>Sound Devices 722 (24/44.1)
FOB/DFC/KFC/ZFC/AARP 35' From Stage, 7' High
DSP: Sound Devices 722>Sound Forge 10.0>CD Wave>flac(16)
ID3 Tagged In Foobar 2000
Recorded By: Z-Man
Seeded By: Z-Man 

Disc I 1st Set

01 Wonderin’ >
02 Mr. Soul
03 Hope In A Hopeless World 
04 1 x 1 >
05 Christmas Katie >
06 Good Morning Little Schoolgirl>
07 Who Do You Belong To?
08 Thought Sausage >
09 Bowl Legged Woman >
10 Action Man >
11 Bowl Legged Woman

Disc II 2nd Set 

01 Saint Ex > 
02 Hatfield >
03 Jam >
04 Ride Me High >
05 Jam >
06 Stop Breakin’ Down 

Disc III 2nd Set Con’t

01 Machine >
02 Barstools And Dreamers 
03 You Should Be Glad 
04 Goin’ Out West >
05 Jam >
06 Contentment Blues >
07 Chilly Water >
08 Drum Solo >
09 Chilly Water 
Encore:
10 Banter
11 Puppy Sleeps 
12 Flat Foot Flewzy 

wsp2019-03-23d01t01.flac:207b3fdbbc83db120edc3c76f1f9fdd8
wsp2019-03-23d01t02.flac:96e7943c2e81ffbc600c24a16032522e
wsp2019-03-23d01t03.flac:bb815d1b891a50d0d708d8644d6e2034
wsp2019-03-23d01t04.flac:c8a140b2d999a5bf69b8200061156f8e
wsp2019-03-23d01t05.flac:af404efc2b39267aeecbb89db5df0609
wsp2019-03-23d01t06.flac:4e76f0d56d4e126ece3086e8701bd3ce
wsp2019-03-23d01t07.flac:c522fc3b832d73d1becc73cee9b5f126
wsp2019-03-23d01t08.flac:8d4784f968f4db0cff9cac4ce6786bb5
wsp2019-03-23d01t09.flac:4126daefcf04dbaf0d5569061d0dfeb7
wsp2019-03-23d01t10.flac:994bfbf8e738e227babec286aa5eca41
wsp2019-03-23d01t11.flac:b2b72e86c116833a81e5da9660c7695b
wsp2019-03-23d02t01.flac:32b8f98d837e0bb7d928e1c6a9a55b66
wsp2019-03-23d02t02.flac:ce8cc32e6a3e68eb7f887c239c2ee283
wsp2019-03-23d02t03.flac:2a81fcca135cb8050930e8649c8aa098
wsp2019-03-23d02t04.flac:002461064e409688220a55fcc4a0fb52
wsp2019-03-23d02t05.flac:a019f4b69fa16aca532784f2874ebd5f
wsp2019-03-23d02t06.flac:b2f8cac34c9c1e276c8b7a65ae96cc0b
wsp2019-03-23d03t01.flac:2441e2036621bc5bae4c527e9f2b132f
wsp2019-03-23d03t02.flac:bfa9a6fcea1e31137102d495217a4c5a
wsp2019-03-23d03t03.flac:303b857260e632713997ae9ca6426034
wsp2019-03-23d03t04.flac:5855ca58e1fc96499cd33024e1ab13c9
wsp2019-03-23d03t05.flac:5d3b6fccd0345cf6e31e30f175851cec
wsp2019-03-23d03t06.flac:09b59d41bc6199dde1dc712d06fefe67
wsp2019-03-23d03t07.flac:b4a9569f327960524fd7c1ad34981126
wsp2019-03-23d03t08.flac:85cc801e6a564b43e1675c11d80de67c
wsp2019-03-23d03t09.flac:26ca4f787b271083f8d292d26a0e5456
wsp2019-03-23d03t10.flac:3a348ce34d6f36e909be93badc0e3dff
wsp2019-03-23d03t11.flac:065b7683009320974ae3f0e5e72de22c
wsp2019-03-23d03t12.flac:e6f30704c7080622eb88287bad96400a

length     expanded size    cdr  WAVE problems  fmt   ratio  filename
     4:39.19       49260332 B   ---   --   ---xx   flac  0.5561  wsp2019-03-23d01t01.flac
     6:05.38       64475420 B   ---   --   ---xx   flac  0.5560  wsp2019-03-23d01t02.flac
     6:15.68       66309980 B   ---   --   ---xx   flac  0.5328  wsp2019-03-23d01t03.flac
     7:10.16       75889676 B   ---   --   ---xx   flac  0.5328  wsp2019-03-23d01t04.flac
     6:50.06       72338156 B   ---   --   ---xx   flac  0.4954  wsp2019-03-23d01t05.flac
    10:37.32      112442108 B   ---   --   ---xx   flac  0.4814  wsp2019-03-23d01t06.flac
     6:39.25       70442444 B   ---   --   ---xx   flac  0.5100  wsp2019-03-23d01t07.flac
     5:22.09       56822012 B   ---   --   ---xx   flac  0.5793  wsp2019-03-23d01t08.flac
     3:09.40       33433724 B   ---   --   ---xx   flac  0.5469  wsp2019-03-23d01t09.flac
     4:24.58       46706060 B   ---   --   ---xx   flac  0.5936  wsp2019-03-23d01t10.flac
     3:59.68       42319580 B   ---   --   ---xx   flac  0.5186  wsp2019-03-23d01t11.flac
    10:06.71      107065436 B   ---   --   ---xx   flac  0.4832  wsp2019-03-23d02t01.flac
    13:54.29      147185852 B   ---   --   ---xx   flac  0.4993  wsp2019-03-23d02t02.flac
     5:40.60       60117164 B   ---   --   ---xx   flac  0.4888  wsp2019-03-23d02t03.flac
     9:40.12      102340268 B   ---   --   ---xx   flac  0.5293  wsp2019-03-23d02t04.flac
     4:49.57       51113708 B   ---   --   ---xx   flac  0.4898  wsp2019-03-23d02t05.flac
     6:52.74       72850892 B   ---   --   ---xx   flac  0.5375  wsp2019-03-23d02t06.flac
     4:08.42       43846028 B   ---   --   ---xx   flac  0.5132  wsp2019-03-23d03t01.flac
    12:39.35      133969964 B   ---   --   ---xx   flac  0.5421  wsp2019-03-23d03t02.flac
    12:21.14      130745372 B   ---   --   ---xx   flac  0.5354  wsp2019-03-23d03t03.flac
     6:19.00       66855644 B   ---   --   ---xx   flac  0.5469  wsp2019-03-23d03t04.flac
     1:30.74       16050092 B   ---   --   ---xx   flac  0.4350  wsp2019-03-23d03t05.flac
     5:13.28       55279100 B   ---   --   ---xx   flac  0.5245  wsp2019-03-23d03t06.flac
     4:56.43       52315580 B   ---   --   ---xx   flac  0.5670  wsp2019-03-23d03t07.flac
     1:05.44       11569532 B   ---   --   ---xx   flac  0.6054  wsp2019-03-23d03t08.flac
     4:45.33       50351660 B   ---   --   ---xx   flac  0.5600  wsp2019-03-23d03t09.flac
     0:36.41        6446876 B   ---   --   ---xx   flac  0.3636  wsp2019-03-23d03t10.flac
     6:13.01       65799596 B   ---   --   ---xx   flac  0.5359  wsp2019-03-23d03t11.flac
     6:53.73       73024940 B   ---   --   ---xx   flac  0.5464  wsp2019-03-23d03t12.flac
   183:02.60     1937367196 B                            0.5259  (29 files)









More information about the bittorrent mailing list