[bittorrent] Mike Gordon Band 2019-03-23 The Sinclair Cambridge, MA Schoeps mk22>nbob actives>Naiant PFAs>Sonosax SXR4+ **16bit**

Automated Mailer noreply-bt.e at etree.org
Sun Mar 24 07:20:35 UTC 2019


Band:           Mike Gordon
Torrent Name:   Mike Gordon Band 2019-03-23 The Sinclair Cambridge, MA Schoeps mk22>nbob actives>Naiant PFAs>Sonosax SXR4+ **16bit**
Uploaded by:    andyjah
DB Link:        
Details:        http://bt.etree.org/details.php?id=604829

Contact the seeder at http://db.etree.org/andyjah

If the link to this show does not work, it was probably removed for
being non-trade-friendly.

Description / text file:
-------------------------
Mike Gordon Band
2019-03-23
The Sinclair 
Cambridge, MA

Mics were hung from balcony rail slightly right of center

Source: Schoeps mk22 (~60degrees @ 31cm)>nbob actives>Naiant PFAs>Sonosax SX-R4+
Transfer: Sandisk 128gb 95mb/s sdxc card>MacBook Pro>Audacity(tracking, normalizing, fades)>Sony Soundforge Convrt(resample(izotope,highest settings)/dither(mbit+/ultra, high dither)to 16 bit/44.1k)>XAct(FLAC 8,ffp,fix sbe)

Recorded and transferred by Andy Murray

Set 1

01 crowd
02 Whirlwind
03 Equilibrium
04 Sleep To Dream >
05 My Favorite Mistake
06 Tropical Rocket
07 Noon To Noon
08 Angatta
09 Jam *
10 Sughn Never Sets

Set 2

01 Crowd 
02 I Am Random **
03 Victim ** >
04 Peel **
05 Got To Be More Careful **
06 Acid Man ** >
07 Are You A Hypnotist?? **
08 Crazy Sometimes **
09 How Many People Are You **
10 encore break
11 Sweet Emotion **

* with Mike and his daughter Tessa tossing out “I Am Random” pins to the crowd
** with Trey on guitar

;flac fingerprints generated by xACT 2.47 on 2019-03-24 07:10:49 +0000

mgb2019-03-23.mk22.sxr4+.1644.s1t01.flac:ac087f625895abf80908b8cd9c0d391f
mgb2019-03-23.mk22.sxr4+.1644.s1t02.flac:b7180015ae3e5bacdd1b0790a50cdce4
mgb2019-03-23.mk22.sxr4+.1644.s1t03.flac:befa79ae6516242a1d72705ffc3bff79
mgb2019-03-23.mk22.sxr4+.1644.s1t04.flac:2fa028613875c17f7fac8fd1ddc197fc
mgb2019-03-23.mk22.sxr4+.1644.s1t05.flac:84837b065e2e6158b339924f2ff7521c
mgb2019-03-23.mk22.sxr4+.1644.s1t06.flac:25f498e83599d17d1cb48635d572f1d3
mgb2019-03-23.mk22.sxr4+.1644.s1t07.flac:055958999513883f58f920886dae87eb
mgb2019-03-23.mk22.sxr4+.1644.s1t08.flac:c4e34a027f8026022e05520e054dfef7
mgb2019-03-23.mk22.sxr4+.1644.s1t09.flac:0e8ac0f877ebc1da2dec43dc355ce44f
mgb2019-03-23.mk22.sxr4+.1644.s1t10.flac:0223f602ca08150061b4c6fe4173fc8d
mgb2019-03-23.mk22.sxr4+.1644.s2t01.flac:6aba24ccce2a3cda0796558bfc61c71e
mgb2019-03-23.mk22.sxr4+.1644.s2t02.flac:691554350789dcb9661ea3f5c7654e62
mgb2019-03-23.mk22.sxr4+.1644.s2t03.flac:28cb00ffc1393f133f301ee196c5aa7c
mgb2019-03-23.mk22.sxr4+.1644.s2t04.flac:689efc5030b9a6060667203a3317471c
mgb2019-03-23.mk22.sxr4+.1644.s2t05.flac:21e5ed5a79fea14cf6cd6700dfc015b4
mgb2019-03-23.mk22.sxr4+.1644.s2t06.flac:08eaf37fe653f4396358bd2bed2402dd
mgb2019-03-23.mk22.sxr4+.1644.s2t07.flac:189d461cab9c9d3099349b8840135738
mgb2019-03-23.mk22.sxr4+.1644.s2t08.flac:59f713376166c3879ccade7b64e9729a
mgb2019-03-23.mk22.sxr4+.1644.s2t09.flac:3731836469c549a51deb76a37eefaa61
mgb2019-03-23.mk22.sxr4+.1644.s2t10.flac:e62bad444a539e8ecd07e832abca5151
mgb2019-03-23.mk22.sxr4+.1644.s2t11.flac:d81bddae8e046b56c97ca783d016cc28

    length     expanded size    cdr  WAVE problems  fmt   ratio  filename
     1:28.24       15579692 B   ---   --   -----    wav  1.0000  mgb2019-03-23.mk22.sxr4+.1644.s1t01.wav
     9:12.22       97424588 B   ---   --   -----    wav  1.0000  mgb2019-03-23.mk22.sxr4+.1644.s1t02.wav
     6:44.30       71336204 B   ---   --   -----    wav  1.0000  mgb2019-03-23.mk22.sxr4+.1644.s1t03.wav
     7:51.67       83242028 B   ---   --   -----    wav  1.0000  mgb2019-03-23.mk22.sxr4+.1644.s1t04.wav
     5:37.68       59606780 B   ---   --   -----    wav  1.0000  mgb2019-03-23.mk22.sxr4+.1644.s1t05.wav
     5:07.48       54267740 B   ---   --   -----    wav  1.0000  mgb2019-03-23.mk22.sxr4+.1644.s1t06.wav
    10:56.61      115861916 B   ---   --   -----    wav  1.0000  mgb2019-03-23.mk22.sxr4+.1644.s1t07.wav
     8:18.07       87863708 B   ---   --   -----    wav  1.0000  mgb2019-03-23.mk22.sxr4+.1644.s1t08.wav
     1:51.35       19662764 B   ---   --   -----    wav  1.0000  mgb2019-03-23.mk22.sxr4+.1644.s1t09.wav
    10:03.25      106428044 B   ---   --   -----    wav  1.0000  mgb2019-03-23.mk22.sxr4+.1644.s1t10.wav
     1:15.27       13293548 B   ---   --   -----    wav  1.0000  mgb2019-03-23.mk22.sxr4+.1644.s2t01.wav
     6:36.11       69880316 B   ---   --   -----    wav  1.0000  mgb2019-03-23.mk22.sxr4+.1644.s2t02.wav
     7:53.20       83484284 B   ---   --   -----    wav  1.0000  mgb2019-03-23.mk22.sxr4+.1644.s2t03.wav
    12:11.73      129120140 B   ---   --   -----    wav  1.0000  mgb2019-03-23.mk22.sxr4+.1644.s2t04.wav
    10:44.00      113601644 B   ---   --   -----    wav  1.0000  mgb2019-03-23.mk22.sxr4+.1644.s2t05.wav
     8:20.38       88289420 B   ---   --   -----    wav  1.0000  mgb2019-03-23.mk22.sxr4+.1644.s2t06.wav
     9:47.20      103593884 B   ---   --   -----    wav  1.0000  mgb2019-03-23.mk22.sxr4+.1644.s2t07.wav
     9:11.59       97335212 B   ---   --   -----    wav  1.0000  mgb2019-03-23.mk22.sxr4+.1644.s2t08.wav
    11:10.24      118244492 B   ---   --   -----    wav  1.0000  mgb2019-03-23.mk22.sxr4+.1644.s2t09.wav
     2:21.61       25015916 B   ---   --   -----    wav  1.0000  mgb2019-03-23.mk22.sxr4+.1644.s2t10.wav
     6:44.69       71427932 B   ---   --   -----    wav  1.0000  mgb2019-03-23.mk22.sxr4+.1644.s2t11.wav
   153:29.39     1624560252 B                            1.0000  (21 files)




More information about the bittorrent mailing list