[bittorrent] Mike Gordon Band 2019-03-23 The Sinclair Cambridge, MA Schoeps mk4v>kc5>cmc6>Sonosax SXR4+ **16bit**

Automated Mailer noreply-bt.e at etree.org
Sun Mar 24 05:54:50 UTC 2019


Band:           Mike Gordon
Torrent Name:   Mike Gordon Band 2019-03-23 The Sinclair Cambridge, MA Schoeps mk4v>kc5>cmc6>Sonosax SXR4+ **16bit**
Uploaded by:    andyjah
DB Link:        
Details:        http://bt.etree.org/details.php?id=604828

Contact the seeder at http://db.etree.org/andyjah

If the link to this show does not work, it was probably removed for
being non-trade-friendly.

Description / text file:
-------------------------
Mike Gordon Band
2019-03-23
The Sinclair 
Cambridge, MA

Mics were hung from balcony rail slightly right of center

Source: Schoeps mk4v (~70degrees @ 21cm)>kc5>cmc6>Sonosax SX-R4+
Transfer: Sandisk 128gb 95mb/s sdxc card>MacBook Pro>Audacity(tracking, normalizing, fades)>Sony Soundforge Convrt(resample(izotope,highest settings)/dither(mbit+/ultra, high dither)to 16 bit/44.1k)>XAct(FLAC 8,ffp,fix sbe)

Recorded and transferred by Andy Murray

Set 1

01 crowd
02 Whirlwind
03 Equilibrium
04 Sleep To Dream >
05 My Favorite Mistake
06 Tropical Rocket
07 Noon To Noon
08 Angatta
09 Jam *
10 Sughn Never Sets

Set 2

01 Crowd 
02 I Am Random **
03 Victim ** >
04 Peel **
05 Got To Be More Careful **
06 Acid Man ** >
07 Are You A Hypnotist?? **
08 Crazy Sometimes **
09 How Many People Are You **
10 encore break
11 Sweet Emotion **

* with Mike and his daughter Tessa tossing out “I Am Random” pins to the crowd
** with Trey on guitar

;flac fingerprints generated by xACT 2.47 on 2019-03-24 05:45:13 +0000

mgb2019-03-23.mk4v.sxr4+.1644.s1t01.flac:023d80f5417671c087ac75b90857205c
mgb2019-03-23.mk4v.sxr4+.1644.s1t02.flac:02c8f811d4e7faceedd15e9ec6d1af76
mgb2019-03-23.mk4v.sxr4+.1644.s1t03.flac:0c6c69805bce76549b65f4a80e27d44e
mgb2019-03-23.mk4v.sxr4+.1644.s1t04.flac:431aff50487f7e0061c6a7290dfe6ad4
mgb2019-03-23.mk4v.sxr4+.1644.s1t05.flac:8433922b9cec2ea23dbb45d9d04f0185
mgb2019-03-23.mk4v.sxr4+.1644.s1t06.flac:d97e38ffecfd93f0a70436932cf17ea5
mgb2019-03-23.mk4v.sxr4+.1644.s1t07.flac:0c0ae465c335fc4d3022934b946b2697
mgb2019-03-23.mk4v.sxr4+.1644.s1t08.flac:f6a96d8a9963c6e1c97a178ca0046528
mgb2019-03-23.mk4v.sxr4+.1644.s1t09.flac:27929d8d5b0cdd7ac9df008f7e49950d
mgb2019-03-23.mk4v.sxr4+.1644.s1t10.flac:9af319125e49a8e98f6f33d7b3369027
mgb2019-03-23.mk4v.sxr4+.1644.s2t01.flac:1fe3ebddbd52d4674acd4f3a959d24b8
mgb2019-03-23.mk4v.sxr4+.1644.s2t02.flac:9029b9bce0f4a3cbf8671e37267fb6bc
mgb2019-03-23.mk4v.sxr4+.1644.s2t03.flac:cdf2c5306c69040e34915dec61a1b975
mgb2019-03-23.mk4v.sxr4+.1644.s2t04.flac:af8ee91674253e32bfc08bc72687e942
mgb2019-03-23.mk4v.sxr4+.1644.s2t05.flac:a3c01b3c972e7ba584ce3b897979375f
mgb2019-03-23.mk4v.sxr4+.1644.s2t06.flac:a0e80af5daf30335804b6521bb2f92e8
mgb2019-03-23.mk4v.sxr4+.1644.s2t07.flac:3299f866398818723efcb035713c3d96
mgb2019-03-23.mk4v.sxr4+.1644.s2t08.flac:515bb8d7781fdc5e4a0c03cc9dbe82ec
mgb2019-03-23.mk4v.sxr4+.1644.s2t09.flac:b5959c591175da212e39e467afcfbf55
mgb2019-03-23.mk4v.sxr4+.1644.s2t10.flac:cc113c6000d2e864f4bc9bc7fe4f10e8
mgb2019-03-23.mk4v.sxr4+.1644.s2t11.flac:b6cec1893245e1a3d984eef23aae70ba

    length     expanded size    cdr  WAVE problems  fmt   ratio  filename
     1:28.24       15579692 B   ---   --   -----    wav  1.0000  mgb2019-03-23.mk4v.sxr4+.1644.s1t01.wav
     9:12.22       97424588 B   ---   --   -----    wav  1.0000  mgb2019-03-23.mk4v.sxr4+.1644.s1t02.wav
     6:44.30       71336204 B   ---   --   -----    wav  1.0000  mgb2019-03-23.mk4v.sxr4+.1644.s1t03.wav
     7:51.67       83242028 B   ---   --   -----    wav  1.0000  mgb2019-03-23.mk4v.sxr4+.1644.s1t04.wav
     5:37.68       59606780 B   ---   --   -----    wav  1.0000  mgb2019-03-23.mk4v.sxr4+.1644.s1t05.wav
     5:07.48       54267740 B   ---   --   -----    wav  1.0000  mgb2019-03-23.mk4v.sxr4+.1644.s1t06.wav
    10:56.61      115861916 B   ---   --   -----    wav  1.0000  mgb2019-03-23.mk4v.sxr4+.1644.s1t07.wav
     8:18.07       87863708 B   ---   --   -----    wav  1.0000  mgb2019-03-23.mk4v.sxr4+.1644.s1t08.wav
     1:51.35       19662764 B   ---   --   -----    wav  1.0000  mgb2019-03-23.mk4v.sxr4+.1644.s1t09.wav
    10:03.25      106428044 B   ---   --   -----    wav  1.0000  mgb2019-03-23.mk4v.sxr4+.1644.s1t10.wav
     1:15.27       13293548 B   ---   --   -----    wav  1.0000  mgb2019-03-23.mk4v.sxr4+.1644.s2t01.wav
     6:36.11       69880316 B   ---   --   -----    wav  1.0000  mgb2019-03-23.mk4v.sxr4+.1644.s2t02.wav
     7:53.20       83484284 B   ---   --   -----    wav  1.0000  mgb2019-03-23.mk4v.sxr4+.1644.s2t03.wav
    12:11.73      129120140 B   ---   --   -----    wav  1.0000  mgb2019-03-23.mk4v.sxr4+.1644.s2t04.wav
    10:44.00      113601644 B   ---   --   -----    wav  1.0000  mgb2019-03-23.mk4v.sxr4+.1644.s2t05.wav
     8:20.38       88289420 B   ---   --   -----    wav  1.0000  mgb2019-03-23.mk4v.sxr4+.1644.s2t06.wav
     9:47.20      103593884 B   ---   --   -----    wav  1.0000  mgb2019-03-23.mk4v.sxr4+.1644.s2t07.wav
     9:11.59       97335212 B   ---   --   -----    wav  1.0000  mgb2019-03-23.mk4v.sxr4+.1644.s2t08.wav
    11:10.24      118244492 B   ---   --   -----    wav  1.0000  mgb2019-03-23.mk4v.sxr4+.1644.s2t09.wav
     2:21.61       25015916 B   ---   --   -----    wav  1.0000  mgb2019-03-23.mk4v.sxr4+.1644.s2t10.wav
     6:44.69       71427932 B   ---   --   -----    wav  1.0000  mgb2019-03-23.mk4v.sxr4+.1644.s2t11.wav
   153:29.39     1624560252 B                            1.0000  (21 files)




More information about the bittorrent mailing list