[bittorrent] Widespread Panic Capitol Theater Port Chester, New York 3/22/2019 (Schoeps MK4V'S FOB)

Automated Mailer noreply-bt.e at etree.org
Sat Mar 23 08:55:46 UTC 2019


Band:           Widespread Panic
Torrent Name:   Widespread Panic Capitol Theater Port Chester, New York 3/22/2019 (Schoeps MK4V'S FOB)
Uploaded by:    zmanatl
DB Link:        
Details:        http://bt.etree.org/details.php?id=604818

Contact the seeder at http://db.etree.org/zmanatl

If the link to this show does not work, it was probably removed for
being non-trade-friendly.

Description / text file:
-------------------------
Widespread Panic
Capitol Theater
Port Chester, New York
3/22/2019 

Source: Schoeps MK4V'S>CMC6>Lunatec V2>Sound Devices 722 (24/44.1)
FOB/DFC/KFC/ZFC/AARP 35' From Stage, 8' High
DSP: Sound Devices 722>Sound Forge 10.0>CD Wave>flac(16)
ID3 Tagged In Foobar 2000
Recorded By: Z-Man
Seeded By: Z-Man 

Disc I 1st Set

01 Greeting
02 Let It Rock >
03 Radio Child
04 C Brown
05 Dyin’ Man 
06 Shut Up And Drive >
07 Pleas >
08 Henry Parsons Died 
09 Sundown Betty >
10 B Of D >
11 Conrad The Caterpillar

Disc II 2nd Set

01 You Got Yours >
02 Up All Night >
03 Blackout Blues 
04 That Thang >
05 Ribs And Whiskey

Disc III 2nd Set Con’t

01 Steven’s Cat >
02 Fishwater >
03 Drum Solo >
04 Drums And Bass >
05 Fishwater >
05 Slippin’ Into Darkness >
07 Travelin’ Light
Encore:
08 Pilgrims >
09 Red Hot Mama

wsp2019-03-22d01t01.flac:4084eb818d206eda009be351960a6abe
wsp2019-03-22d01t02.flac:cb1e87ee71dfee24bc7d4264d6787231
wsp2019-03-22d01t03.flac:acb2c1dbc4177ba1848e775a5ec52d49
wsp2019-03-22d01t04.flac:7e734972f45ad72268a16151a9f4453a
wsp2019-03-22d01t05.flac:e537957fa01f529667afa43ed467c01f
wsp2019-03-22d01t06.flac:53862b13e8d64413c4c302049afbc70b
wsp2019-03-22d01t07.flac:f165217136d178c1b8d119fc2a65a506
wsp2019-03-22d01t08.flac:96e75b96fc1deb93a36933e7929eaadf
wsp2019-03-22d01t09.flac:1c567012a6788eccc3341d690d3a5177
wsp2019-03-22d01t10.flac:63a4d21bc11f1dc022fa9f1268b6b4cf
wsp2019-03-22d01t11.flac:5cf625658a5484db784ff5bf6283b4de
wsp2019-03-22d02t01.flac:1cff51bf7bdbf28a4f7e22d97bc6c6fe
wsp2019-03-22d02t02.flac:bd9690b33bb81c22713447426920d5f2
wsp2019-03-22d02t03.flac:9535f9164ec61a4a8b0aea9c196c985a
wsp2019-03-22d02t04.flac:69299d13062032bab56919288fb751f7
wsp2019-03-22d02t05.flac:cea3f5db3ff516fd30b599b98fd74e31
wsp2019-03-22d03t01.flac:a497a2c5540b115b601b0db4d3efafe1
wsp2019-03-22d03t02.flac:cedbeebf12ba5c1c72abb193167c5f30
wsp2019-03-22d03t03.flac:48b4ce47a52ff7dcfc670f5bf7af9895
wsp2019-03-22d03t04.flac:8d089eafa97b92b9b69af0206a3af5d2
wsp2019-03-22d03t05.flac:ad314dc9f0732cc73ec6f12e125c3a15
wsp2019-03-22d03t06.flac:cda4c0c343ce0956070bf0f86b00fdd2
wsp2019-03-22d03t07.flac:4f2c6707cbc54519d0932a34a74d31ee
wsp2019-03-22d03t08.flac:167d2561089afe1a2a5c9e20247c0dcf
wsp2019-03-22d03t09.flac:29c1105a5c4f806ab4f456c476e28fb9

 length     expanded size    cdr  WAVE problems  fmt   ratio  filename
     0:38.22        6754988 B   ---   --   ---xx   flac  0.4097  wsp2019-03-22d01t01.flac
     7:30.49       79495292 B   ---   --   ---xx   flac  0.4770  wsp2019-03-22d01t02.flac
     6:37.41       70127276 B   ---   --   ---xx   flac  0.5442  wsp2019-03-22d01t03.flac
     6:34.08       69520460 B   ---   --   ---xx   flac  0.4598  wsp2019-03-22d01t04.flac
     5:16.66       55897676 B   ---   --   ---xx   flac  0.5822  wsp2019-03-22d01t05.flac
     9:47.33      103624460 B   ---   --   ---xx   flac  0.5171  wsp2019-03-22d01t06.flac
     8:36.09       91043612 B   ---   --   ---xx   flac  0.5421  wsp2019-03-22d01t07.flac
     7:11.26       76089596 B   ---   --   ---xx   flac  0.5462  wsp2019-03-22d01t08.flac
     7:24.23       78375740 B   ---   --   ---xx   flac  0.5312  wsp2019-03-22d01t09.flac
     3:41.12       39012668 B   ---   --   ---xx   flac  0.5503  wsp2019-03-22d01t10.flac
     9:42.06      102678956 B   ---   --   ---xx   flac  0.5402  wsp2019-03-22d01t11.flac
    10:52.56      115144556 B   ---   --   ---xx   flac  0.5083  wsp2019-03-22d02t01.flac
     7:26.29       78742652 B   ---   --   ---xx   flac  0.5281  wsp2019-03-22d02t02.flac
     7:07.02       75327548 B   ---   --   ---xx   flac  0.5179  wsp2019-03-22d02t03.flac
    11:46.13      124569020 B   ---   --   ---xx   flac  0.4914  wsp2019-03-22d02t04.flac
    10:28.56      110910956 B   ---   --   ---xx   flac  0.5299  wsp2019-03-22d02t05.flac
     5:03.28       53515100 B   ---   --   ---xx   flac  0.5455  wsp2019-03-22d03t01.flac
     7:04.24       74850092 B   ---   --   ---xx   flac  0.5825  wsp2019-03-22d03t02.flac
     8:52.70       94009484 B   ---   --   ---xx   flac  0.5109  wsp2019-03-22d03t03.flac
     1:12.11       12726716 B   ---   --   ---xx   flac  0.5265  wsp2019-03-22d03t04.flac
     3:54.01       41279996 B   ---   --   ---xx   flac  0.5942  wsp2019-03-22d03t05.flac
    10:55.07      115558508 B   ---   --   ---xx   flac  0.5429  wsp2019-03-22d03t06.flac
     6:20.47       67142588 B   ---   --   ---xx   flac  0.5209  wsp2019-03-22d03t07.flac
     8:26.15       89293724 B   ---   --   ---xx   flac  0.4895  wsp2019-03-22d03t08.flac
     8:09.31       86332556 B   ---   --   ---xx   flac  0.5720  wsp2019-03-22d03t09.flac
   180:39.10     1912024220 B                            0.5274  (25 files)






More information about the bittorrent mailing list