[bittorrent] Mike Gordon Band 2019-03-22 The Sinclair Cambridge, MA Schoeps mk22>nbob actives>Naiant PFAs>Sonosax SXR4+ **16bit**

Automated Mailer noreply-bt.e at etree.org
Sat Mar 23 06:55:03 UTC 2019


Band:           Mike Gordon
Torrent Name:   Mike Gordon Band 2019-03-22 The Sinclair Cambridge, MA Schoeps mk22>nbob actives>Naiant PFAs>Sonosax SXR4+ **16bit**
Uploaded by:    andyjah
DB Link:        
Details:        http://bt.etree.org/details.php?id=604814

Contact the seeder at http://db.etree.org/andyjah

If the link to this show does not work, it was probably removed for
being non-trade-friendly.

Description / text file:
-------------------------
Mike Gordon Band
2019-03-22
The Sinclair 
Cambridge, MA

Mics were hung from balcony rail slightly right of center

Source: Schoeps mk22 (~60degrees @ 31cm)>nbob actives>Naiant PFAs>Sonosax SX-R4+
Transfer: Sandisk 128gb 95mb/s sdxc card>MacBook Pro>Audacity(tracking, normalizing, fades)>Sony Soundforge Convrt(resample(izotope,highest settings)/dither(mbit+/ultra, high dither)to 16 bit/44.1k)>XAct(FLAC 8,ffp,fix sbe)

Recorded and transferred by Andy Murray

Set 1

01 crowd
02 Destiny Unbound
03 Pendulum
04 Jones >
05 Ether
06 banter
07 Marissa >
08 Normal Phoebe

Set 2

01 crowd
02 Let’s Go
03 Cruel World
04 Up and Down
05 555 >
06 When Your Mind’s Made Up
07 Check Your Pepper
08 Steps >
09 Dig Further Down
10 encore break
11 Cities

;flac fingerprints generated by xACT 2.47 on 2019-03-23 06:34:26 +0000

mgb2019-03-22.mk22.sxr4+.1644.s1t01.flac:74a75c0547514eb007c351a996d803fa
mgb2019-03-22.mk22.sxr4+.1644.s1t02.flac:e5b0b76b7097b3fcf6c3ece2c0cd0cb6
mgb2019-03-22.mk22.sxr4+.1644.s1t03.flac:c31ee78f920cf0a52298a2f4e95d3d7b
mgb2019-03-22.mk22.sxr4+.1644.s1t04.flac:5df038497f1038f96665de68ee62f7a6
mgb2019-03-22.mk22.sxr4+.1644.s1t05.flac:bb4edfba7f2610874c37d6c55d4d01b6
mgb2019-03-22.mk22.sxr4+.1644.s1t06.flac:cf91e9e1631fc94095c5c4af45faa2f6
mgb2019-03-22.mk22.sxr4+.1644.s1t07.flac:dc8969cf958c8b4f35a3d9faf365da74
mgb2019-03-22.mk22.sxr4+.1644.s1t08.flac:53407aacf21a664031d60ba24bebd9a7
mgb2019-03-22.mk22.sxr4+.1644.s2t01.flac:524abf57444aa1f8163521995417efa6
mgb2019-03-22.mk22.sxr4+.1644.s2t02.flac:81bb2b020d91688b7c3401bddfaa380c
mgb2019-03-22.mk22.sxr4+.1644.s2t03.flac:37a107939ad38735bc17068268992d52
mgb2019-03-22.mk22.sxr4+.1644.s2t04.flac:5b785d9a8e621ba385062d48fde5850a
mgb2019-03-22.mk22.sxr4+.1644.s2t05.flac:246c6811581bc5126e64f01ff6579fa9
mgb2019-03-22.mk22.sxr4+.1644.s2t06.flac:f725fd224caf1143f4f46f9bf6c1582a
mgb2019-03-22.mk22.sxr4+.1644.s2t07.flac:5cc2660af21dea8838ab32e565ca096f
mgb2019-03-22.mk22.sxr4+.1644.s2t08.flac:6e942b1233ea04326458bbdb032abccd
mgb2019-03-22.mk22.sxr4+.1644.s2t09.flac:7b58ffec9b8d892c793fac10593c2f8d
mgb2019-03-22.mk22.sxr4+.1644.s2t10.flac:03f6700848fc7d82078ea0b40ba70e5a
mgb2019-03-22.mk22.sxr4+.1644.s2t11.flac:a69cd75bec20f22266f74afabe89e036

    length     expanded size    cdr  WAVE problems  fmt   ratio  filename
     1:37.71       17277836 B   ---   --   -----    wav  1.0000  mgb2019-03-22.mk22.sxr4+.1644.s1t01.wav
    10:09.49      107542892 B   ---   --   -----    wav  1.0000  mgb2019-03-22.mk22.sxr4+.1644.s1t02.wav
    12:12.48      129237740 B   ---   --   -----    wav  1.0000  mgb2019-03-22.mk22.sxr4+.1644.s1t03.wav
     7:35.20       80309084 B   ---   --   -----    wav  1.0000  mgb2019-03-22.mk22.sxr4+.1644.s1t04.wav
     9:56.33      105212060 B   ---   --   -----    wav  1.0000  mgb2019-03-22.mk22.sxr4+.1644.s1t05.wav
     1:34.26       16642796 B   ---   --   -----    wav  1.0000  mgb2019-03-22.mk22.sxr4+.1644.s1t06.wav
     6:39.00       70383644 B   ---   --   -----    wav  1.0000  mgb2019-03-22.mk22.sxr4+.1644.s1t07.wav
     8:15.59       87456812 B   ---   --   -----    wav  1.0000  mgb2019-03-22.mk22.sxr4+.1644.s1t08.wav
     1:31.32       16127708 B   ---   --   -----    wav  1.0000  mgb2019-03-22.mk22.sxr4+.1644.s2t01.wav
     9:15.33       97979660 B   ---   --   -----    wav  1.0000  mgb2019-03-22.mk22.sxr4+.1644.s2t02.wav
    10:14.71      108476636 B   ---   --   -----    wav  1.0000  mgb2019-03-22.mk22.sxr4+.1644.s2t03.wav
     4:58.64       52717772 B   ---   --   -----    wav  1.0000  mgb2019-03-22.mk22.sxr4+.1644.s2t04.wav
     7:58.63       84467420 B   ---   --   -----    wav  1.0000  mgb2019-03-22.mk22.sxr4+.1644.s2t05.wav
     5:30.63       58360220 B   ---   --   -----    wav  1.0000  mgb2019-03-22.mk22.sxr4+.1644.s2t06.wav
     7:14.40       76651724 B   ---   --   -----    wav  1.0000  mgb2019-03-22.mk22.sxr4+.1644.s2t07.wav
     7:46.64       82352972 B   ---   --   -----    wav  1.0000  mgb2019-03-22.mk22.sxr4+.1644.s2t08.wav
     7:26.61       78817916 B   ---   --   -----    wav  1.0000  mgb2019-03-22.mk22.sxr4+.1644.s2t09.wav
     2:11.26       23169596 B   ---   --   -----    wav  1.0000  mgb2019-03-22.mk22.sxr4+.1644.s2t10.wav
     7:59.00       84495644 B   ---   --   -----    wav  1.0000  mgb2019-03-22.mk22.sxr4+.1644.s2t11.wav
   130:09.73     1377680132 B                            1.0000  (19 files)




More information about the bittorrent mailing list