[bittorrent] Mike Gordon Band 2019-03-22 The Sinclair Cambridge, MA Schoeps mk4v>kc5>cmc6>Sonosax SXR4+ **16bit**

Automated Mailer noreply-bt.e at etree.org
Sat Mar 23 06:51:09 UTC 2019


Band:           Mike Gordon
Torrent Name:   Mike Gordon Band 2019-03-22 The Sinclair Cambridge, MA Schoeps mk4v>kc5>cmc6>Sonosax SXR4+ **16bit**
Uploaded by:    andyjah
DB Link:        
Details:        http://bt.etree.org/details.php?id=604812

Contact the seeder at http://db.etree.org/andyjah

If the link to this show does not work, it was probably removed for
being non-trade-friendly.

Description / text file:
-------------------------
Mike Gordon Band
2019-03-22
The Sinclair 
Cambridge, MA

Mics were hung from balcony rail slightly right of center

Source: Schoeps mk4v (~70degrees @ 21cm)>kc5>cmc6>Sonosax SX-R4+
Transfer: Sandisk 128gb 95mb/s sdxc card>MacBook Pro>Audacity(tracking, normalizing, fades)>Sony Soundforge Convrt(resample(izotope,highest settings)/dither(mbit+/ultra, high dither)to 16 bit/44.1k)>XAct(FLAC 8,ffp,fix sbe)

Recorded and transferred by Andy Murray

Set 1

01 crowd
02 Destiny Unbound
03 Pendulum
04 Jones >
05 Ether
06 banter
07 Marissa >
08 Normal Phoebe

Set 2

01 crowd
02 Let’s Go
03 Cruel World
04 Up and Down
05 555 >
06 When Your Mind’s Made Up
07 Check Your Pepper
08 Steps >
09 Dig Further Down
10 encore break
11 Cities

;flac fingerprints generated by xACT 2.47 on 2019-03-23 06:19:09 +0000

mgb2019-03-22.mk4v.sxr4+.1644.s1t01.flac:32ddff9d08cedf6087b0f0bbb0d76f76
mgb2019-03-22.mk4v.sxr4+.1644.s1t02.flac:d5c50eb2764405003fb59eb77fbb8caf
mgb2019-03-22.mk4v.sxr4+.1644.s1t03.flac:a9e5c4da93493840d9d10e9959dccbd7
mgb2019-03-22.mk4v.sxr4+.1644.s1t04.flac:f0a43b9566dbf737b1bbada2271db4ee
mgb2019-03-22.mk4v.sxr4+.1644.s1t05.flac:a998309eacd168747d228978448004c2
mgb2019-03-22.mk4v.sxr4+.1644.s1t06.flac:c146fe8a3813f46faa0c3ce5332670f3
mgb2019-03-22.mk4v.sxr4+.1644.s1t07.flac:24bb03f5f34ee9d8f4b9dbaebfbf2857
mgb2019-03-22.mk4v.sxr4+.1644.s1t08.flac:396215e43c1cb4624c698696ec5a278c
mgb2019-03-22.mk4v.sxr4+.1644.s2t01.flac:7bbdba6c58d79421fb1b0afe80bcc8e8
mgb2019-03-22.mk4v.sxr4+.1644.s2t02.flac:4dfbc988a04b752634d48583b33255a3
mgb2019-03-22.mk4v.sxr4+.1644.s2t03.flac:1ab45664cad3c15fc0cd0592e162bc01
mgb2019-03-22.mk4v.sxr4+.1644.s2t04.flac:7381b53a27eb14a367350c02fffc30bf
mgb2019-03-22.mk4v.sxr4+.1644.s2t05.flac:689f909284236ce3d0e6af4c04e32f6b
mgb2019-03-22.mk4v.sxr4+.1644.s2t06.flac:ded3bb7ddf620955c51884b15979531e
mgb2019-03-22.mk4v.sxr4+.1644.s2t07.flac:acdacbee132aa6bc2a70ed76861bf51a
mgb2019-03-22.mk4v.sxr4+.1644.s2t08.flac:c9bdeca7ef690a9efcccf0bed035d186
mgb2019-03-22.mk4v.sxr4+.1644.s2t09.flac:d5baca538c5e4426db907a679823b1ac
mgb2019-03-22.mk4v.sxr4+.1644.s2t10.flac:cc0ebb3fac501c1935b28780ed245c15
mgb2019-03-22.mk4v.sxr4+.1644.s2t11.flac:b4213b052dc3496c88c51710de0ba712

    length     expanded size    cdr  WAVE problems  fmt   ratio  filename
     1:37.71       17277836 B   ---   --   -----    wav  1.0000  mgb2019-03-22.mk4v.sxr4+.1644.s1t01.wav
    10:09.49      107542892 B   ---   --   -----    wav  1.0000  mgb2019-03-22.mk4v.sxr4+.1644.s1t02.wav
    12:12.48      129237740 B   ---   --   -----    wav  1.0000  mgb2019-03-22.mk4v.sxr4+.1644.s1t03.wav
     7:35.20       80309084 B   ---   --   -----    wav  1.0000  mgb2019-03-22.mk4v.sxr4+.1644.s1t04.wav
     9:56.33      105212060 B   ---   --   -----    wav  1.0000  mgb2019-03-22.mk4v.sxr4+.1644.s1t05.wav
     1:34.26       16642796 B   ---   --   -----    wav  1.0000  mgb2019-03-22.mk4v.sxr4+.1644.s1t06.wav
     6:39.00       70383644 B   ---   --   -----    wav  1.0000  mgb2019-03-22.mk4v.sxr4+.1644.s1t07.wav
     8:15.59       87456812 B   ---   --   -----    wav  1.0000  mgb2019-03-22.mk4v.sxr4+.1644.s1t08.wav
     1:31.32       16127708 B   ---   --   -----    wav  1.0000  mgb2019-03-22.mk4v.sxr4+.1644.s2t01.wav
     9:15.33       97979660 B   ---   --   -----    wav  1.0000  mgb2019-03-22.mk4v.sxr4+.1644.s2t02.wav
    10:14.71      108476636 B   ---   --   -----    wav  1.0000  mgb2019-03-22.mk4v.sxr4+.1644.s2t03.wav
     4:58.64       52717772 B   ---   --   -----    wav  1.0000  mgb2019-03-22.mk4v.sxr4+.1644.s2t04.wav
     7:58.63       84467420 B   ---   --   -----    wav  1.0000  mgb2019-03-22.mk4v.sxr4+.1644.s2t05.wav
     5:30.63       58360220 B   ---   --   -----    wav  1.0000  mgb2019-03-22.mk4v.sxr4+.1644.s2t06.wav
     7:14.40       76651724 B   ---   --   -----    wav  1.0000  mgb2019-03-22.mk4v.sxr4+.1644.s2t07.wav
     7:46.64       82352972 B   ---   --   -----    wav  1.0000  mgb2019-03-22.mk4v.sxr4+.1644.s2t08.wav
     7:26.61       78817916 B   ---   --   -----    wav  1.0000  mgb2019-03-22.mk4v.sxr4+.1644.s2t09.wav
     2:11.26       23169596 B   ---   --   -----    wav  1.0000  mgb2019-03-22.mk4v.sxr4+.1644.s2t10.wav
     7:59.00       84495644 B   ---   --   -----    wav  1.0000  mgb2019-03-22.mk4v.sxr4+.1644.s2t11.wav
   130:09.73     1377680132 B                            1.0000  (19 files)




More information about the bittorrent mailing list