[bittorrent] gd1990-04-03.145750.ots.senn.me80.hessberg.miller.noel.t-flac16

Automated Mailer noreply-bt.e at etree.org
Sat Mar 23 02:25:02 UTC 2019


Band:           Grateful Dead
Torrent Name:   gd1990-04-03.145750.ots.senn.me80.hessberg.miller.noel.t-flac16
Uploaded by:    norm
DB Link:        
Details:        http://bt.etree.org/details.php?id=604809

Contact the seeder at http://db.etree.org/norm

If the link to this show does not work, it was probably removed for
being non-trade-friendly.

Description / text file:
-------------------------
145220 24 > 16 - same HASH served @ Lossless Legs

Grateful Dead

April 03, 1990
The Omni, 
Atlanta, GA
Sets I & II

Recording Info:
(OTS) Sennheiser ME80 > Cassette Master (Sony TC-D5M/Maxell XLII-S100)

Transfer Info:
Cassette Master (Nakamichi DR-1) > Tascam DA-3000 (DSF 1-bit/5.6MHz) >
dBpoweramp > WAV (24-bit/96k)
 
Master Audience Recording by Micheal Hessberg 
DSD Transfer by Charlie Miller
Edited & Mastered by Joe Noel
February 14, 2019

This file set is 16 bit @ 44.1

Patch info:
- shnid (Schoeps CMC4 MK21)
- s2t06; 08:02 - end
- s2t07; start - 00:18

Notes:
- Thanks to Micheal Hessberg for recording the show
- Thanks to Charlie for coordinating this & the DSD transfer
- Thanks to Dave Brotman for suppling the patch source.
- Officially released as part of Spring 1990 (The Other One) box set.
- tapes pauses & flip (s1) were cross faded.
- I remember this one pretty well.  During set break we hit the fatty zone BTS & never left.  We sat right on top of Brent & he flat out mesmerized me.

- Set I -
s1t01 - tuning
s1t02 - Shakedown Street
s1t03 - Hell in the Bucket ->
s1t04 - Sugaree
s1t05 - We Can Run but We Can't Hide
s1t06 - When I Paint My Masterpiece
s1t07 - Row Jimmy
s1t08 - Picasso Moon ->
s1t09 - Tennessee Jed ->
s1t10 - Promised Land

- Set II -
s2t01 - tuning
s2t02 - Estimated Prophet ->
s2t03 - Scarlet Begonias ->
s2t04 - Crazy Fingers ->
s2t05 - Playing in the Band ->
s2t06 - Drums -> 
s2t07 - Space ->
s2t08 - I Will Take You Home ->
s2t09 - Goin' Down The Road Feelin' Bad ->
s2t10 - Throwing Stones ->
s2t11 - Not Fade Away ->
- encore -
s2t12 - We Bid You Good Night

Tagging notes:
Show information is embedded within the header of each flac file. 
It will display on any player capable of directly playing flac files. 
If converted to wav during processing, all tags will be stripped, 
however audio data will remain unaffected. If you must 
transcode to a lossy format, do so directly Flac > Lossy.
Use ffp or st5 to validate audio integrity.
Md5 values will change if tagging is altered.
[J.Noel 14 February 2019]

    length     expanded size    cdr  WAVE problems  fmt   ratio  filename
     0:32.45        5750684 B   ---   --   ---xx   flac  0.6378  gd90-04-03.s1t01.flac
    12:14.63      129625820 B   ---   --   ---xx   flac  0.6255  gd90-04-03.s1t02.flac
     6:14.32       66048908 B   ---   --   ---xx   flac  0.6621  gd90-04-03.s1t03.flac
    12:20.47      130646588 B   ---   --   ---xx   flac  0.6261  gd90-04-03.s1t04.flac
     7:34.49       80200892 B   ---   --   ---xx   flac  0.6254  gd90-04-03.s1t05.flac
     5:32.09       58586012 B   ---   --   ---xx   flac  0.6343  gd90-04-03.s1t06.flac
    10:52.02      115017548 B   ---   --   ---xx   flac  0.6081  gd90-04-03.s1t07.flac
     7:12.02       76209548 B   ---   --   ---xx   flac  0.6640  gd90-04-03.s1t08.flac
     7:40.52       81266348 B   ---   --   ---xx   flac  0.6346  gd90-04-03.s1t09.flac
     4:49.02       50984348 B   ---   --   ---xx   flac  0.6475  gd90-04-03.s1t10.flac
     3:06.54       32937452 B   ---   --   ---xx   flac  0.5655  gd90-04-03.s2t01.flac
    13:54.55      147247004 B   ---   --   ---xx   flac  0.6423  gd90-04-03.s2t02.flac
     6:53.69       73015532 B   ---   --   ---xx   flac  0.6478  gd90-04-03.s2t03.flac
     8:10.38       86525420 B   ---   --   ---xx   flac  0.6246  gd90-04-03.s2t04.flac
    11:36.45      122880284 B   ---   --   ---xx   flac  0.6290  gd90-04-03.s2t05.flac
     8:06.34       85810412 B   ---   --   ---xx   flac  0.5749  gd90-04-03.s2t06.flac
     7:02.03       74447900 B   ---   --   ---xx   flac  0.5806  gd90-04-03.s2t07.flac
     4:08.11       43773116 B   ---   --   ---xx   flac  0.5982  gd90-04-03.s2t08.flac
     6:14.50       66091244 B   ---   --   ---xx   flac  0.6505  gd90-04-03.s2t09.flac
     8:42.48       92193740 B   ---   --   ---xx   flac  0.6470  gd90-04-03.s2t10.flac
     7:28.02       79031948 B   ---   --   ---xx   flac  0.6363  gd90-04-03.s2t11.flac
     3:25.38       36251420 B   ---   --   ---xx   flac  0.5815  gd90-04-03.s2t12.flac
   163:53.00     1734542168 B                            0.6269  (22 files)



More information about the bittorrent mailing list