[bittorrent] gd1990-04-02.145749.ots.senn421.hessberg.miller.noel.t-flac16

Automated Mailer noreply-bt.e at etree.org
Fri Mar 22 22:51:17 UTC 2019


Band:           Grateful Dead
Torrent Name:   gd1990-04-02.145749.ots.senn421.hessberg.miller.noel.t-flac16
Uploaded by:    norm
DB Link:        
Details:        http://bt.etree.org/details.php?id=604802

Contact the seeder at http://db.etree.org/norm

If the link to this show does not work, it was probably removed for
being non-trade-friendly.

Description / text file:
-------------------------
145219 24 > 16 - same HASH served @ Lossless Legs

Grateful Dead

April 02, 1990
The Omni, 
Atlanta, GA
Sets I & II

Recording Info:
(OTS) Sennheiser ME80 > Cassette Master (Sony TC-D5M/Maxell XLII-S100)

Transfer Info:
Cassette Master (Nakamichi DR-1) > Tascam DA-3000 (DSF 1-bit/5.6MHz) >
dBpoweramp > WAV (24-bit/96k)
 
Master Audience Recording by Micheal Hessberg 
DSD Transfer by Charlie Miller
Edited & Mastered by Joe Noel
February 12, 2019

This file set is 16 bit @ 44.1

Patch info:
- shnid 143172 Schoeps CMC4 MK21
- s1t07; 05:04 - 05:19
- s2t07; 03:27 - 04:06

Notes:
- Thanks to Micheal Hessberg for recording the show
- Thanks to Charlie for coordinating this & the DSD transfer
- Thanks to Dave Brotman for suppling the patch source.
- Officially released as part of Spring 1990 (The Other One) box set.
- first Weight below the Mason Dixon (it was like Dark Star in Hampton, kids went nuts).
- final Death Don't Have No Mercy

- Set I -
s1t01 - tuning
s1t02 - Feel Like a Stranger
s1t03 - Mississippi Half Step Uptown Toodeloo ->
s1t04 - The Weight
s1t05 - Queen Jane Approximately
s1t06 - Easy to Love You
s1t07 - Brown Eyed Women
s1t08 - Let It Grow 

- Set II -
s2t01 - tuning
s2t02 - Foolish Heart ->
s2t03 - Looks Like Rain
s2t04 - He's Gone ->
s2t05 - The Last Time ->
s2t06 - Drums -> 
s2t07 - Space ->
s2t08 - The Other One ->
s2t09 - Death Don't Have No Mercy
s2t10 - Around and Around ->
s2t11 - Good Lovin'
- encore -
s2t12 - Black Muddy River

Tagging notes:
Show information is embedded within the header of each flac file. 
It will display on any player capable of directly playing flac files. 
If converted to wav during processing, all tags will be stripped, 
however audio data will remain unaffected. If you must 
transcode to a lossy format, do so directly Flac > Lossy.
Use ffp or st5 to validate audio integrity.
Md5 values will change if tagging is altered.
[J.Noel 14 February 2019]

    length     expanded size    cdr  WAVE problems  fmt   ratio  filename
     3:32.13       37427420 B   ---   --   ---xx   flac  0.5918  gd90-04-02.s1t01.flac
     9:22.00       99136844 B   ---   --   ---xx   flac  0.6353  gd90-04-02.s1t02.flac
     6:58.34       73815212 B   ---   --   ---xx   flac  0.6160  gd90-04-02.s1t03.flac
     6:46.66       71773676 B   ---   --   ---xx   flac  0.6386  gd90-04-02.s1t04.flac
     6:53.69       73015532 B   ---   --   ---xx   flac  0.6206  gd90-04-02.s1t05.flac
     6:27.03       68273900 B   ---   --   ---xx   flac  0.6209  gd90-04-02.s1t06.flac
     5:54.47       62556188 B   ---   --   ---xx   flac  0.6333  gd90-04-02.s1t07.flac
    12:31.68      132636380 B   ---   --   ---xx   flac  0.6285  gd90-04-02.s1t08.flac
     1:13.06       12891356 B   ---   --   ---xx   flac  0.5765  gd90-04-02.s2t01.flac
     9:17.55       98384204 B   ---   --   ---xx   flac  0.6376  gd90-04-02.s2t02.flac
     8:25.17       89122028 B   ---   --   ---xx   flac  0.6142  gd90-04-02.s2t03.flac
     8:58.09       94924412 B   ---   --   ---xx   flac  0.6096  gd90-04-02.s2t04.flac
     5:41.39       60244172 B   ---   --   ---xx   flac  0.6416  gd90-04-02.s2t05.flac
    10:35.38      112103420 B   ---   --   ---xx   flac  0.5573  gd90-04-02.s2t06.flac
     8:23.56       88860956 B   ---   --   ---xx   flac  0.5480  gd90-04-02.s2t07.flac
     6:32.16       69186476 B   ---   --   ---xx   flac  0.6295  gd90-04-02.s2t08.flac
     7:39.01       80969996 B   ---   --   ---xx   flac  0.6131  gd90-04-02.s2t09.flac
     3:42.27       39224348 B   ---   --   ---xx   flac  0.6427  gd90-04-02.s2t10.flac
     7:20.65       77768924 B   ---   --   ---xx   flac  0.6184  gd90-04-02.s2t11.flac
     6:23.72       67730588 B   ---   --   ---xx   flac  0.5959  gd90-04-02.s2t12.flac
   142:40.26     1510046032 B                            0.6136  (20 files)



More information about the bittorrent mailing list