[bittorrent] gd1990-04-01.145747.ots.senn421.hessberg.miller.noel.t-flac16

Automated Mailer noreply-bt.e at etree.org
Fri Mar 22 19:26:30 UTC 2019


Band:           Grateful Dead
Torrent Name:   gd1990-04-01.145747.ots.senn421.hessberg.miller.noel.t-flac16
Uploaded by:    norm
DB Link:        
Details:        http://bt.etree.org/details.php?id=604799

Contact the seeder at http://db.etree.org/norm

If the link to this show does not work, it was probably removed for
being non-trade-friendly.

Description / text file:
-------------------------
Grateful Dead

April 01, 1990
The Omni, 
Atlanta, GA
Sets I & II

Recording Info:
Sennheiser 421 > Cassette Master (Sony TC-D5M/Maxell XLII-S100)

Transfer Info:
Cassette Master (Nakamichi DR-1) > Tascam DA-3000 (DSF 1-bit/5.6MHz) >
dBpoweramp > WAV (24-bit/96k)
 
Master Audience Recording by Micheal Hessberg 
DSD Transfer by Charlie Miller
Edited & Mastered by Joe Noel
February 09, 2019

This file set is 16 bit @ 44.1

Patch info:
- shnid 3458, Nak 300/CP4's > PMD 420
- s1t01; start - 00:44
- s1t06; 05:00 - end
- s1t07; start - 00:05
- s1t08; 08:31 - 08:44
- s2t06; 09:53 - 10:04
- s2t08; 01:30 - 01:50

Notes:
- Thanks to Micheal Hessberg for recording the show.
- Thanks to Charlie for coordinating this & the DSD transfer.
- Thanks to Alan Wallace for suppling the patch source.
- Officially released as part of Spring 1990 (The Other One) box set.

- Set I -
s1t01 - Touch of Grey ->
s1t02 - Walkin' Blues
s1t03 - Just A Little Light
s1t04 - Candyman
s1t05 - Me and My Uncle ->
s1t06 - Big River
s1t07 - Althea
s1t08 - Victim or the Crime ->
s1t09 - To Lay Me Down ->
s1t10 - The Music Never Stopped

- Set II -
s2t01 - China Cat Sunflower ->
s2t02 - I Know You Rider
s2t03 - Ship of Fools ->
s2t04 - Man Smart (Woman Smarter) ->
s2t05 - Drums -> 
s2t06 - Space ->
s2t07 - Dear Mr. Fantasy ->
s2t08 - Hey Jude ->
s2t09 - Truckin' ->
s2t10 - Stella Blue ->
s2t11 - Sugar Magnolia
- encore -
s2t12 - It's All Over Now Baby Blue

Tagging notes:
Show information is embedded within the header of each flac file. 
It will display on any player capable of directly playing flac files. 
If converted to wav during processing, all tags will be stripped, 
however audio data will remain unaffected. If you must 
transcode to a lossy format, do so directly Flac > Lossy.
Use ffp or st5 to validate audio integrity.
Md5 values will change if tagging is altered.
[J.Noel 14 February 2019]

    length     expanded size    cdr  WAVE problems  fmt   ratio  filename
     6:50.66       72479276 B   ---   --   ---xx   flac  0.6447  gd90-04-01.s1t01.flac
     6:55.26       73267196 B   ---   --   ---xx   flac  0.6498  gd90-04-01.s1t02.flac
     6:36.12       69882668 B   ---   --   ---xx   flac  0.6436  gd90-04-01.s1t03.flac
     7:41.22       81372188 B   ---   --   ---xx   flac  0.6313  gd90-04-01.s1t04.flac
     3:04.22       32509388 B   ---   --   ---xx   flac  0.6474  gd90-04-01.s1t05.flac
     5:30.35       58294364 B   ---   --   ---xx   flac  0.6737  gd90-04-01.s1t06.flac
     7:39.43       81068780 B   ---   --   ---xx   flac  0.6517  gd90-04-01.s1t07.flac
    10:37.29      112435052 B   ---   --   ---xx   flac  0.6514  gd90-04-01.s1t08.flac
     9:18.22       98482988 B   ---   --   ---xx   flac  0.6300  gd90-04-01.s1t09.flac
     7:44.43       81950780 B   ---   --   ---xx   flac  0.6801  gd90-04-01.s1t10.flac
     5:30.70       58376684 B   ---   --   ---xx   flac  0.6737  gd90-04-01.s2t01.flac
     4:47.25       50685644 B   ---   --   ---xx   flac  0.6776  gd90-04-01.s2t02.flac
     7:45.18       82068380 B   ---   --   ---xx   flac  0.6317  gd90-04-01.s2t03.flac
     7:43.65       81826124 B   ---   --   ---xx   flac  0.6367  gd90-04-01.s2t04.flac
     7:11.35       76110764 B   ---   --   ---xx   flac  0.5977  gd90-04-01.s2t05.flac
    11:40.28      123545900 B   ---   --   ---xx   flac  0.5903  gd90-04-01.s2t06.flac
     5:41.57       60286508 B   ---   --   ---xx   flac  0.6556  gd90-04-01.s2t07.flac
     2:31.24       26692892 B   ---   --   ---xx   flac  0.6714  gd90-04-01.s2t08.flac
     7:02.47       74551388 B   ---   --   ---xx   flac  0.6417  gd90-04-01.s2t09.flac
    10:14.31      108382556 B   ---   --   ---xx   flac  0.6078  gd90-04-01.s2t10.flac
     9:11.40       97290524 B   ---   --   ---xx   flac  0.6607  gd90-04-01.s2t11.flac
     7:30.48       79492940 B   ---   --   ---xx   flac  0.6217  gd90-04-01.s2t12.flac
   158:49.58     1681052984 B                            0.6399  (22 files)



More information about the bittorrent mailing list