[bittorrent] gd1989-10-14.145746.ots.akg460.ackerman.miller.noel.t-flac16

Automated Mailer noreply-bt.e at etree.org
Fri Mar 22 16:21:43 UTC 2019


Band:           Grateful Dead
Torrent Name:   gd1989-10-14.145746.ots.akg460.ackerman.miller.noel.t-flac16
Uploaded by:    norm
DB Link:        
Details:        http://bt.etree.org/details.php?id=604796

Contact the seeder at http://db.etree.org/norm

If the link to this show does not work, it was probably removed for
being non-trade-friendly.

Description / text file:
-------------------------
141763 24 > 16 - same HASH served @ Lossless Legs

Grateful Dead

October 14, 1989
Meadowlands Arena, 
East Rutherford, NJ
Sets I & II

Ackerman Archives

Recording Info:
Ray Ackerman's Master Audience Cassettes; AKG 460 w/ck63 caps > AKG B18 phantom power unit > Sony D5

Transfer Info:
Master Cassettes (Sony TCK71) > Grace Design Lunatec V3 (Oade modified) > M-Audio MicroTrack II (wav 24-bit/96k)

Edited & Mastered by Joe Noel
WAV > Audacity > FLAC 24/96
April 24, 2018

This file set is 16 bit @ 44.1

Patch info:
- shnid 138137 (Schoeps) supplies
- s2t07; 4:37 - 5:13

Notes:
- Thanks to Ray for sharing his masters
- Thanks to Charlie for directing traffic
- Grateful for Ted Mattes' efforts that supply the patch source
- tape pause(s) & flip were cross faded in set one
- Technical problems after Minglewood.
- She may be short, but she sure is sweet.

- Set I -
s1t01 - Touch of Grey
s1t02 - New Minglewood Blues
s1t03 - We Can Run, but We Can't Hide
s1t04 - Friend of the Devil
s1t05 - Mama Tried ->
s1t06 - Mexicali Blues
s1t07 - Help on the Way ->
s1t08 - Slipknot! ->
s1t09 - Franklin's Tower

- Set II -
s2t01 - Foolish Heart ->
s2t02 - Man Smart (Women are Smarter)
s2t03 - Scarlet Begonias ->
s2t04 - Fire on the Mountain jam
s2t06 - Truckin' ->
s2t07 - Drums ->
s2t08 - Space ->
s2t09 - China Doll ->
s2t10 - One More Saturday Night
	- encore
s2t11 - Black Muddy River

Deadicated to the memory of Adam Katz

Tagging notes:
Show information is embedded within the header of each flac file. 
It will display on any player capable of directly playing flac files. 
If converted to wav during processing, all tags will be stripped, 
however audio data will remain unaffected. If you must 
transcode to a lossy format, do so directly Flac > Lossy.
Use ffp or st5 to validate audio integrity.
Md5 values will change if tagging is altered.
[J.Noel 24 April 2018]

    length     expanded size    cdr  WAVE problems  fmt   ratio  filename
     6:52.19       72721532 B   ---   --   ---xx   flac  0.5474  gd89-10-14.s1t01.flac
     9:07.10       96514364 B   ---   --   ---xx   flac  0.5492  gd89-10-14.s1t02.flac
     6:00.00       63504044 B   ---   --   ---xx   flac  0.5536  gd89-10-14.s1t03.flac
     8:48.25       93198044 B   ---   --   ---xx   flac  0.5319  gd89-10-14.s1t04.flac
     2:37.43       27795980 B   ---   --   ---xx   flac  0.5490  gd89-10-14.s1t05.flac
     5:43.24       60561692 B   ---   --   ---xx   flac  0.5352  gd89-10-14.s1t06.flac
     4:07.15       43606124 B   ---   --   ---xx   flac  0.5379  gd89-10-14.s1t07.flac
     5:08.33       54408860 B   ---   --   ---xx   flac  0.5357  gd89-10-14.s1t08.flac
     8:49.64       93466172 B   ---   --   ---xx   flac  0.5524  gd89-10-14.s1t09.flac
     8:24.26       88966796 B   ---   --   ---xx   flac  0.5429  gd89-10-14.s2t01.flac
    10:28.07      110795708 B   ---   --   ---xx   flac  0.5576  gd89-10-14.s2t02.flac
     6:09.35       65173964 B   ---   --   ---xx   flac  0.5497  gd89-10-14.s2t03.flac
     6:42.14       70945772 B   ---   --   ---xx   flac  0.5301  gd89-10-14.s2t04.flac
    10:43.31      113498156 B   ---   --   ---xx   flac  0.5398  gd89-10-14.s2t05.flac
     8:22.54       88679852 B   ---   --   ---xx   flac  0.5030  gd89-10-14.s2t06.flac
     8:46.27       92849948 B   ---   --   ---xx   flac  0.4758  gd89-10-14.s2t07.flac
     7:24.31       78394556 B   ---   --   ---xx   flac  0.5190  gd89-10-14.s2t08.flac
     6:21.18       67250780 B   ---   --   ---xx   flac  0.5601  gd89-10-14.s2t09.flac
     6:50.65       72476924 B   ---   --   ---xx   flac  0.5183  gd89-10-14.s2t10.flac
   137:27.16     1454809268 B                            0.5354  (19 files)



More information about the bittorrent mailing list