[bittorrent] gd1989-07-07.145745.fob.akg460.ackerman.miller.noel.t-flac16

Automated Mailer noreply-bt.e at etree.org
Fri Mar 22 13:29:45 UTC 2019


Band:           Grateful Dead
Torrent Name:   gd1989-07-07.145745.fob.akg460.ackerman.miller.noel.t-flac16
Uploaded by:    norm
DB Link:        
Details:        http://bt.etree.org/details.php?id=604793

Contact the seeder at http://db.etree.org/norm

If the link to this show does not work, it was probably removed for
being non-trade-friendly.

Description / text file:
-------------------------
Grateful Dead

July 07, 1989
John F. Kennedy Stadium, 
Philadelphia, PA
Sets I & II

Ackerman Archives

Recording Info:
Ray Ackerman's Master Audience Cassettes; AKG 460 w/ck63 caps > AKG B18 phantom power unit > Sony D5 (FOB)

Transfer Info:
Master Cassettes (Sony TCK71) > Grace Design Lunatec V3 (Oade modified) > M-Audio MicroTrack II (wav 24-bit/96k)

Edited & Mastered by Joe Noel
WAV > Audacity > FLAC 24/96
April 16, 2018

This file set is 16 bit @ 44.1

Patch info:
- shnid 133776 (AKG) supplies
- s1t02; 07:09 - end
- s1t03; start - 00:05
- s1t04; 07:09 - end
- s1t05; start - 00:05
- s1t05; 08:51 - 09:16
- s2t06; 05:31 - 05:47

Notes:
- Thanks to Ray for sharing his masters.
- Thanks to Charlie for directing traffic.
- Grateful for Dan Tepper's efforts that supply the patch source.
- No music was effected by tape pauses.
- Crowd noise was patched between songs to maintain a seamless flow, as cross fades didn't sound right.
- All patches are virtually undetectable.
- Bruce Hornsby & The Range opened.
- final concert held at JFK (rightfully so).
- The trio to close out s1 makes my highlight reel. 

-Set I-
s1t01 - Hell in a Bucket ->
s1t02 - Iko Iko
s1t03 - Little Red Rooster
s1t04 - Ramble on Rose
s1t05 - Stuck Inside of Mobile with Memphis Blues Again
s1t06 - Loser ->
s1t07 - Let It Grow ->
s1t08 - Blow Away

-Set II-
s2t01 - Box of Rain
s2t02 - Scarlet Begonias ->
s2t03 - Fire on the Mountain
s2t04 - Estimated Prophet ->
s2t05 - Standing on the Moon ->
s2t06 - Drums ->
s2t07 - Space ->
s2t08 - The Other One ->
s2t09 - Wharf Rat ->
s2t10 - Turn on Your Love Light
	encore
s2t11 - Knockin' on Heaven's Door

Tagging notes:
Show information is embedded within the header of each flac file. 
It will display on any player capable of directly playing flac files. 
If converted to wav during processing, all tags will be stripped, 
however audio data will remain unaffected. If you must 
transcode to a lossy format, do so directly Flac > Lossy.
Use ffp or st5 to validate audio integrity.
Md5 values will change if tagging is altered.
[J.Noel 16 April 2018]

    length     expanded size    cdr  WAVE problems  fmt   ratio  filename
     6:38.62       70353068 B   ---   --   ---xx   flac  0.5627  gd89-07-07.s1t01.flac
     7:45.00       82026044 B   ---   --   ---xx   flac  0.5581  gd89-07-07.s1t02.flac
    10:07.16      107112476 B   ---   --   ---xx   flac  0.5573  gd89-07-07.s1t03.flac
     7:34.62       80231468 B   ---   --   ---xx   flac  0.5549  gd89-07-07.s1t04.flac
     9:24.36       99574316 B   ---   --   ---xx   flac  0.5665  gd89-07-07.s1t05.flac
     7:16.40       77004524 B   ---   --   ---xx   flac  0.5553  gd89-07-07.s1t06.flac
    12:35.00      133182044 B   ---   --   ---xx   flac  0.5693  gd89-07-07.s1t07.flac
    12:31.41      132572876 B   ---   --   ---xx   flac  0.5850  gd89-07-07.s1t08.flac
     5:13.57       55347308 B   ---   --   ---xx   flac  0.5597  gd89-07-07.s2t01.flac
    10:09.34      107507612 B   ---   --   ---xx   flac  0.5768  gd89-07-07.s2t02.flac
    13:33.02      143417948 B   ---   --   ---xx   flac  0.5692  gd89-07-07.s2t03.flac
     9:13.42       97648028 B   ---   --   ---xx   flac  0.5786  gd89-07-07.s2t04.flac
     8:22.48       88665740 B   ---   --   ---xx   flac  0.5288  gd89-07-07.s2t05.flac
     9:50.16      104113676 B   ---   --   ---xx   flac  0.5150  gd89-07-07.s2t06.flac
     7:56.43       84067580 B   ---   --   ---xx   flac  0.4606  gd89-07-07.s2t07.flac
     9:59.58      105800060 B   ---   --   ---xx   flac  0.5601  gd89-07-07.s2t08.flac
    10:31.72      111477788 B   ---   --   ---xx   flac  0.5677  gd89-07-07.s2t09.flac
     7:12.50       76322444 B   ---   --   ---xx   flac  0.5976  gd89-07-07.s2t10.flac
     8:34.63       90817820 B   ---   --   ---xx   flac  0.5545  gd89-07-07.s2t11.flac
   174:31.67     1847242820 B                            0.5581  (19 files)



More information about the bittorrent mailing list