[bittorrent] Larry Campbell And Teresa Williams With Special Guest David Bromberg City Winery New York City, New York 3/21/2019 (Schoeps MK4V'S FOB)

Automated Mailer noreply-bt.e at etree.org
Fri Mar 22 05:21:39 UTC 2019


Band:           Larry Campbell
Torrent Name:   Larry Campbell And Teresa Williams With Special Guest David Bromberg City Winery New York City, New York 3/21/2019 (Schoeps MK4V'S FOB)
Uploaded by:    zmanatl
DB Link:        
Details:        http://bt.etree.org/details.php?id=604791

Contact the seeder at http://db.etree.org/zmanatl

If the link to this show does not work, it was probably removed for
being non-trade-friendly.

Description / text file:
-------------------------
Larry Campbell And Teresa Williams With Special Guest David Bromberg
City Winery
New York City, New York
3/21/2019 

Source: Schoeps MK4V'S>CMC6>Lunatec V2>Sound Devices 722 (24/44.1)
FOB/DLFC/KFC/ZFC/AARP 20' From Stage, 8' High
DSP: Sound Devices 722>Sound Forge 10.0>CD Wave>flac(16)
ID3 Tagged In Foobar 2000
Recorded By: Z-Man
Seeded By: Z-Man 

Disc I 

01 Announcement/Band Introduction
02 Ain't Gonna Work
03 Surrender To Love
04 The Other Side Of Pain
05 Save Me
06 Caravan
07 When I Stop Lovin' You
08 *Nobody's Fault But Mine
09 *This Month
10 *Main Street Moan
11 #Dehlia

Disc II 

01 *Dark Hollow
02 *@Tennessee Waltz
03 *Tongue (Shuffle In A)
04 *@Drivin' Wheel
05 *Poor Old Dirt Farmer >
06 *Ragtime Annie
07 Band Introductions
08 *Keep Your Lamps Trimmed And Burnin'
Encore:
09 Banter
10 *Death Don't Have No Mercy 
11 Band Introductions/Outro

* With David Bromberg
# David And Larry Duet
@ With Nancy Josephson

Larry Campbell - Electic Guitar, Acoustic Guitar, Mandolin, Fiddle, And Vocals
Teresa Wlliams - Acousic Guitar And Vocals
Jesse Murphy - Bass
Justin Guipp - Drums

larry2019-03-21d01t01.flac:209f749a0c28e485f83fad68789ec957
larry2019-03-21d01t02.flac:35b3b8b440cae77864e7c6717b8843b6
larry2019-03-21d01t03.flac:02b4f2dc20372eabdb05e62ce05b76ca
larry2019-03-21d01t04.flac:4bae0ecba320b78537e4d0afe49b7e28
larry2019-03-21d01t05.flac:04fcad3c14f2c3acc698de7be3b73257
larry2019-03-21d01t06.flac:34d62526d21de8dd112c09e61f0093a5
larry2019-03-21d01t07.flac:0de3bb7b3904b9c05998cd1d704a33c5
larry2019-03-21d01t08.flac:bfd5e170b9770a9e0d5d6b1d78ff0809
larry2019-03-21d01t09.flac:ec8ae656e2da1d38bc628881c51c89a1
larry2019-03-21d01t10.flac:cf337f975996f9ebee23b357b7a4e7a8
larry2019-03-21d01t11.flac:a7f520b59eaaba97c695cf33d6bdc4d3
larry2019-03-21d02t01.flac:3734f572e9a0da708f8477bfc877924b
larry2019-03-21d02t02.flac:c8be158d1a8faf44dc2baba9feba4ac8
larry2019-03-21d02t03.flac:b3ea9dda38155f5e200abb5220381c69
larry2019-03-21d02t04.flac:71d08d5dc9c1709690e199415709dfa2
larry2019-03-21d02t05.flac:965baa9db14dbf978d1b646a5401cc8a
larry2019-03-21d02t06.flac:74d79071e44ef6979351b0c4fd33ad3c
larry2019-03-21d02t07.flac:d090cf41c958fffdb10e2a19f14d1aea
larry2019-03-21d02t08.flac:b9391dc4c11f7018a28e0e940a8178a3
larry2019-03-21d02t09.flac:3d553bd5ba7e36f0ab55fdc2f0ddc190
larry2019-03-21d02t10.flac:084140aeac577e7496017fef6d6a26c2
larry2019-03-21d02t11.flac:29a8025b85486390ae03002e359c7869

 length     expanded size    cdr  WAVE problems  fmt   ratio  filename
     1:18.26       13820396 B   ---   --   ---xx   flac  0.4500  larry2019-03-21d01t01.flac
     4:24.29       46637852 B   ---   --   ---xx   flac  0.5270  larry2019-03-21d01t02.flac
     6:21.31       67281356 B   ---   --   ---xx   flac  0.5423  larry2019-03-21d01t03.flac
     4:06.54       43521452 B   ---   --   ---xx   flac  0.5201  larry2019-03-21d01t04.flac
     4:26.47       47032988 B   ---   --   ---xx   flac  0.4831  larry2019-03-21d01t05.flac
     6:00.35       63586364 B   ---   --   ---xx   flac  0.4952  larry2019-03-21d01t06.flac
     6:50.35       72406364 B   ---   --   ---xx   flac  0.4703  larry2019-03-21d01t07.flac
     5:51.50       62034044 B   ---   --   ---xx   flac  0.4961  larry2019-03-21d01t08.flac
     8:50.62       93637868 B   ---   --   ---xx   flac  0.4796  larry2019-03-21d01t09.flac
     7:26.03       78681500 B   ---   --   ---xx   flac  0.4396  larry2019-03-21d01t10.flac
    11:29.21      121589036 B   ---   --   ---xx   flac  0.3047  larry2019-03-21d01t11.flac
     6:47.55       71924204 B   ---   --   ---xx   flac  0.4409  larry2019-03-21d02t01.flac
     5:48.29       61455452 B   ---   --   ---xx   flac  0.4553  larry2019-03-21d02t02.flac
     5:13.21       55262636 B   ---   --   ---xx   flac  0.4908  larry2019-03-21d02t03.flac
     8:39.00       91551644 B   ---   --   ---xx   flac  0.5032  larry2019-03-21d02t04.flac
     4:14.27       44869148 B   ---   --   ---xx   flac  0.5300  larry2019-03-21d02t05.flac
     3:17.16       34788476 B   ---   --   ---xx   flac  0.5021  larry2019-03-21d02t06.flac
     2:14.22       23689388 B   ---   --   ---xx   flac  0.3797  larry2019-03-21d02t07.flac
     4:43.23       49975340 B   ---   --   ---xx   flac  0.5427  larry2019-03-21d02t08.flac
     0:24.18        4275980 B   ---   --   ---xx   flac  0.3622  larry2019-03-21d02t09.flac
    13:01.30      137839004 B   ---   --   ---xx   flac  0.4592  larry2019-03-21d02t10.flac
     1:08.35       12077564 B   ---   --   ---xx   flac  0.4230  larry2019-03-21d02t11.flac
   122:37.69     1297938056 B                            0.4667  (22 files)




More information about the bittorrent mailing list