[bittorrent] gd1989-07-04.145743.fob.akg460.ackerman.miller.noel.t-flac16

Automated Mailer noreply-bt.e at etree.org
Fri Mar 22 05:14:22 UTC 2019


Band:           Grateful Dead
Torrent Name:   gd1989-07-04.145743.fob.akg460.ackerman.miller.noel.t-flac16
Uploaded by:    norm
DB Link:        
Details:        http://bt.etree.org/details.php?id=604790

Contact the seeder at http://db.etree.org/norm

If the link to this show does not work, it was probably removed for
being non-trade-friendly.

Description / text file:
-------------------------
141726 24 > 16 - same HASH served @ Lossless Legs

Grateful Dead

July 04, 1989
Rich Stadium
Buffalo, NY
Sets I & II

Ackerman Archives

Recording Info:
Ray Ackerman's Master Audience Cassettes; AKG 460 w/ck63 caps > AKG B18 phantom power unit > Sony D5 (FOB)

Transfer Info:
Master Cassettes (Sony TCK71) > Grace Design Lunatec V3 (Oade modified) > M-Audio MicroTrack II (wav 24-bit/96k)

Edited & Mastered by Joe Noel
WAV > Audacity > FLAC 24/96
April 15, 2018

This file set is 16 bit @ 44.1

Patch info:
- shnid 133778 (AKG) supplies
- s1t03; 06:39 - end
- s1t04; start - 00:06
- s2t06; 07:08 - 07:21

Notes:
- Thanks to Ray for sharing his masters
- Thanks to Charlie for directing traffic
- Grateful for Dan Tepper's efforts that supply the patch source
- s1 tape break was cross faded.
- 10,000 Maniacs opened
- last 1st set LLR: 07-10-87 [153] or 06-28-86 [211]
- last "PitB reprise": 03-21-86 [236], finishes what was started in Foxboro (7/2/89)

- Set I -
s1t01 - Bertha ->
s1t02 - Greatest Story Ever Told
s1t03 - Cold Rain and Snow
s1t04 - Walkin' Blues ->
s1t05 - Row Jimmy
s1t06 - When I Paint My Masterpiece
s1t07 - Stagger Lee
s1t08 - Looks Like Rain ->
s1t09 - Deal

- Set II -
s2t01 - Touch of Grey ->
s2t02 - Man Smart (Women are Smarter)
s2t03 - Ship of Fools ->
s2t04 - Playing in the Band reprise ->
s2t05 - Terrapin Station ->
s2t06 - Drums ->
s2t07 - Space ->
s2t08 - I Will Take You Home ->
s2t09 - All Along the Watchtower ->
s2t10 - Morning Dew ->
s2t11 - Not Fade Away
	encore break
s2t12 - U.S. Blues

Tagging notes:
Show information is embedded within the header of each flac file. 
It will display on any player capable of directly playing flac files. 
If converted to wav during processing, all tags will be stripped, 
however audio data will remain unaffected. If you must 
transcode to a lossy format, do so directly Flac > Lossy.
Use ffp or st5 to validate audio integrity.
Md5 values will change if tagging is altered.
[J.Noel 15 April 2018]

    length     expanded size    cdr  WAVE problems  fmt   ratio  filename
     7:30.53       79504700 B   ---   --   ---xx   flac  0.5752  gd89-07-04.s1t01.flac
     4:22.22       46268588 B   ---   --   ---xx   flac  0.5844  gd89-07-04.s1t02.flac
     6:46.71       71785436 B   ---   --   ---xx   flac  0.5695  gd89-07-04.s1t03.flac
     6:46.59       71757212 B   ---   --   ---xx   flac  0.5539  gd89-07-04.s1t04.flac
    10:35.21      112063436 B   ---   --   ---xx   flac  0.5275  gd89-07-04.s1t05.flac
     5:54.67       62603228 B   ---   --   ---xx   flac  0.5537  gd89-07-04.s1t06.flac
     6:03.36       64117916 B   ---   --   ---xx   flac  0.5734  gd89-07-04.s1t07.flac
     7:15.41       76830476 B   ---   --   ---xx   flac  0.5430  gd89-07-04.s1t08.flac
     7:48.33       82632860 B   ---   --   ---xx   flac  0.5802  gd89-07-04.s1t09.flac
     6:55.26       73267196 B   ---   --   ---xx   flac  0.6142  gd89-07-04.s2t01.flac
     8:49.50       93433244 B   ---   --   ---xx   flac  0.6046  gd89-07-04.s2t02.flac
     8:06.23       85784540 B   ---   --   ---xx   flac  0.5766  gd89-07-04.s2t03.flac
     3:30.58       37180460 B   ---   --   ---xx   flac  0.5873  gd89-07-04.s2t04.flac
    12:20.23      130590140 B   ---   --   ---xx   flac  0.5999  gd89-07-04.s2t05.flac
     9:17.52       98377148 B   ---   --   ---xx   flac  0.5515  gd89-07-04.s2t06.flac
     7:12.51       76324796 B   ---   --   ---xx   flac  0.5181  gd89-07-04.s2t07.flac
     4:28.66       47430476 B   ---   --   ---xx   flac  0.5180  gd89-07-04.s2t08.flac
     5:51.71       62083436 B   ---   --   ---xx   flac  0.6387  gd89-07-04.s2t09.flac
    11:38.21      123176636 B   ---   --   ---xx   flac  0.5923  gd89-07-04.s2t10.flac
     8:19.25       88082444 B   ---   --   ---xx   flac  0.5934  gd89-07-04.s2t11.flac
     5:54.59       62584412 B   ---   --   ---xx   flac  0.5936  gd89-07-04.s2t12.flac
   155:30.28     1645878780 B                            0.5742  (21 files)



More information about the bittorrent mailing list