[bittorrent] Luther Dickinson, Amy Helm, Grahame Lesh, And Birds Of Chicago - Sisters Of The Strawberry Moon City Winery Washington DC 3/20/2019 (Schoeps MK4V'S FOB)

Automated Mailer noreply-bt.e at etree.org
Thu Mar 21 06:58:10 UTC 2019


Band:           North Mississippi Allstars
Torrent Name:   Luther Dickinson, Amy Helm, Grahame Lesh, And Birds Of Chicago - Sisters Of The Strawberry Moon City Winery Washington DC 3/20/2019 (Schoeps MK4V'S FOB)
Uploaded by:    zmanatl
DB Link:        
Details:        http://bt.etree.org/details.php?id=604785

Contact the seeder at http://db.etree.org/zmanatl

If the link to this show does not work, it was probably removed for
being non-trade-friendly.

Description / text file:
-------------------------
Luther Dickinson, Amy Helm, Grahame Lesh, And Birds Of Chicago
City Winery
Washington DC
3/20/2019 

Source: Schoeps MK4V'S>CMC6>Lunatec V2>Sound Devices 722 (24/44.1)
FOB/DRFC/KFC/ZFC/AARP 32' From Stage, 7' High
DSP: Sound Devices 722>Sound Forge 10.0>CD Wave>flac(16)
ID3 Tagged In Foobar 2000
Recorded By: Z-Man
Seeded By: Z-Man 

Disc I 

01 Announcement/Band Introduction/Banter
02 Real Midnight
03 Superlover
04 Mojo Mojo
05 Banter
06 Breathing
07 Try
08 Banter On Waffle House
09 Ain't No Gtave
10 You're Not Alone

Disc II 

01 How Glad I Am
02 Roll Em' Easy 
03 If I Needed You
04 Banter
05 Kathy
06 Prayer For Peace
07 Til It's Gone 
08 Band Introductions
09 Alright Alright
Encore:
10 Thanks/Banter
11 *I See American Flowers

* Second Half Of This Song Is Unplugged At The Front Of The Stage.

Luther Dickinson - Guitar, Bass, Vocals, And Mandolin
Amy Helm - Percussion, Mandolin. Amd Vocals
Allison Russell - Banjo, Clarinet, And Vocals
JT Nero - Acoustic Guitar And Vocals
Drew Lindsay - Grand Piano And Vocals
Grahame Lesh - Bass, Acoustic Guitar, Electric Guitar, And Vocals

luther2019-03-20d01t01.flac:40c15fff1b6c17f37e05d9e13c2fa386
luther2019-03-20d01t02.flac:54e35648e40e3bf3167ed799d659b59d
luther2019-03-20d01t03.flac:407880ac709cee526e8e059825adb87b
luther2019-03-20d01t04.flac:8591d0b09d94c4aa67d84763ea243e9e
luther2019-03-20d01t05.flac:170bf5f0b639ebe241f729edd39c507f
luther2019-03-20d01t06.flac:c5ce70627584c23dba6a972255997ca5
luther2019-03-20d01t07.flac:9145a0e94c4369be52ab356c3df987f2
luther2019-03-20d01t08.flac:01acfbea26efe3d72d47c505fb5156a6
luther2019-03-20d01t09.flac:09bb9c913938bb93431d8533e0b49f26
luther2019-03-20d01t10.flac:bb078697f4117911115c9ed0c7d8334b
luther2019-03-20d02t01.flac:63642b2e9ee5bc69edc1ffae2ce04c60
luther2019-03-20d02t02.flac:da148a53e8e764b217dce11f0348d814
luther2019-03-20d02t03.flac:af0cf26616ab1ef1899627fbdc32fd0c
luther2019-03-20d02t04.flac:cc771576210eb80554ff41d02eb71f80
luther2019-03-20d02t05.flac:84a60e8e9c1c8fae886c8562a1d43bd6
luther2019-03-20d02t06.flac:2d5e1f4ace14d23b74e8c7f13868f152
luther2019-03-20d02t07.flac:6e221536901094bbf155852db4cfd2a1
luther2019-03-20d02t08.flac:28dbd6f2998f0458564a029f41456db3
luther2019-03-20d02t09.flac:0083bf9a541437ae2465a52c768a5320
luther2019-03-20d02t10.flac:7f27ef8155b6f667294aea6b5c81cffe
luther2019-03-20d02t11.flac:ebabf696a009a3caf7454b094d28f508

length     expanded size    cdr  WAVE problems  fmt   ratio  filename
     2:30.41       26556476 B   ---   --   ---xx   flac  0.3465  luther2019-03-20d01t01.flac
     7:56.24       84022892 B   ---   --   ---xx   flac  0.4126  luther2019-03-20d01t02.flac
     5:05.29       53870252 B   ---   --   ---xx   flac  0.3575  luther2019-03-20d01t03.flac
     7:23.64       78295772 B   ---   --   ---xx   flac  0.3771  luther2019-03-20d01t04.flac
     2:53.33       30594860 B   ---   --   ---xx   flac  0.3335  luther2019-03-20d01t05.flac
     3:59.39       42251372 B   ---   --   ---xx   flac  0.4626  luther2019-03-20d01t06.flac
     6:43.42       71188028 B   ---   --   ---xx   flac  0.3982  luther2019-03-20d01t07.flac
     1:51.43       19681580 B   ---   --   ---xx   flac  0.3782  luther2019-03-20d01t08.flac
     7:55.60       83931164 B   ---   --   ---xx   flac  0.3637  luther2019-03-20d01t09.flac
     6:36.24       69910892 B   ---   --   ---xx   flac  0.3741  luther2019-03-20d01t10.flac
     6:37.45       70136684 B   ---   --   ---xx   flac  0.4173  luther2019-03-20d02t01.flac
     5:15.27       55629548 B   ---   --   ---xx   flac  0.3947  luther2019-03-20d02t02.flac
     3:58.37       42070268 B   ---   --   ---xx   flac  0.3517  luther2019-03-20d02t03.flac
     2:54.51       30813596 B   ---   --   ---xx   flac  0.3170  luther2019-03-20d02t04.flac
     5:01.09       53117612 B   ---   --   ---xx   flac  0.4327  luther2019-03-20d02t05.flac
     6:40.68       70719980 B   ---   --   ---xx   flac  0.4143  luther2019-03-20d02t06.flac
     5:53.27       62332748 B   ---   --   ---xx   flac  0.4204  luther2019-03-20d02t07.flac
     2:08.10       22602764 B   ---   --   ---xx   flac  0.4181  luther2019-03-20d02t08.flac
     4:20.58       46000460 B   ---   --   ---xx   flac  0.5082  luther2019-03-20d02t09.flac
     3:05.07       32650508 B   ---   --   ---xx   flac  0.3622  luther2019-03-20d02t10.flac
     7:52.36       83345516 B   ---   --   ---xx   flac  0.3773  luther2019-03-20d02t11.flac
   106:44.24     1129722972 B                            0.3941  (21 files)





More information about the bittorrent mailing list