[bittorrent] Reed Foehl Solo Acoustic The Birchmere Alexandria, Virginia 3/18/2019 (Schoeps MK4V'S FOB)

Automated Mailer noreply-bt.e at etree.org
Tue Mar 19 14:06:58 UTC 2019


Band:           Other
Torrent Name:   Reed Foehl Solo Acoustic The Birchmere Alexandria, Virginia 3/18/2019 (Schoeps MK4V'S FOB)
Uploaded by:    zmanatl
DB Link:        
Details:        http://bt.etree.org/details.php?id=604764

Contact the seeder at http://db.etree.org/zmanatl

If the link to this show does not work, it was probably removed for
being non-trade-friendly.

Description / text file:
-------------------------
Reed Foehl Solo Acoustic
The Birchmere
Alexandria, Virginia
3/18/2019 

Source: Schoeps MK4V'S>CMC6>Lunatec V2>Sound Devices 722 (24/44.1)
FOB/DFC/KFC/ZFC/AARP 30' From Stage, 7 1/2' High
DSP: Sound Devices 722>Sound Forge 10.0>CD Wave>flac(16)
ID3 Tagged In Foobar 2000
Recorded By: Z-Man
Seeded By: Z-Man 

Disc I 

01 Introduction
02 This Wild Love
03 Only In Your Arms
04 Goodbye World
05 Mexican Home
06 Long Time To Make Old Friends
07 *Fly

* With Stuart Lewis On Back-Up Vocals 

reed2019-03-18d01t01.flac:974a2a3dc5d980616008fc1f7e5150da
reed2019-03-18d01t02.flac:763d93835de4445bd9af0d798fe99304
reed2019-03-18d01t03.flac:bb0e70a524e97066fe018b9b129b32a6
reed2019-03-18d01t04.flac:1c56f01f91b988e3775dfcb7feb0fd00
reed2019-03-18d01t05.flac:f88a5bc9ff733a4289319324df3b861e
reed2019-03-18d01t06.flac:a93d155fd62988513f79462a268e3675
reed2019-03-18d01t07.flac:9850cb446e3d24706c6338cffee69866

length     expanded size    cdr  WAVE problems  fmt   ratio  filename
     0:27.62        4908668 B   ---   --   ---xx   flac  0.3680  reed2019-03-18d01t01.flac
     3:13.44       34148732 B   ---   --   ---xx   flac  0.2852  reed2019-03-18d01t02.flac
     5:18.31       56168156 B   ---   --   ---xx   flac  0.3298  reed2019-03-18d01t03.flac
     4:06.68       43554380 B   ---   --   ---xx   flac  0.3398  reed2019-03-18d01t04.flac
     5:02.30       53343404 B   ---   --   ---xx   flac  0.2855  reed2019-03-18d01t05.flac
     4:51.49       51447692 B   ---   --   ---xx   flac  0.3322  reed2019-03-18d01t06.flac
     4:56.42       52313228 B   ---   --   ---xx   flac  0.3606  reed2019-03-18d01t07.flac
    27:57.26      295884260 B                            0.3246  (7 files)






More information about the bittorrent mailing list