[bittorrent] Todd Snider Solo Acoustic The Birchmere Alexandria, Virginia 3/18/2019 (Schoeps MK4V'S FOB)

Automated Mailer noreply-bt.e at etree.org
Tue Mar 19 05:09:14 UTC 2019


Band:           Widespread Panic
Torrent Name:   Todd Snider Solo Acoustic The Birchmere Alexandria, Virginia 3/18/2019 (Schoeps MK4V'S FOB)
Uploaded by:    zmanatl
DB Link:        
Details:        http://bt.etree.org/details.php?id=604760

Contact the seeder at http://db.etree.org/zmanatl

If the link to this show does not work, it was probably removed for
being non-trade-friendly.

Description / text file:
-------------------------
Todd Snider Solo Acoustic
The Birchmere
Alexandria, Virginia
3/18/2019 

Source: Schoeps MK4V'S>CMC6>Lunatec V2>Sound Devices 722 (24/44.1)
FOB/DFC/KFC/ZFC/AARP 42' From Stage, 7' High
DSP: Sound Devices 722>Sound Forge 10.0>CD Wave>flac(16)
ID3 Tagged In Foobar 2000
Recorded By: Z-Man
Seeded By: Z-Man 

Disc I 

01 Greeting/Banter
02 Talking Reality Television Blues
03 Working On A Song
04 Ballad Of The Devil's Backbone Tavern
05 DB Cooper
06 Too Soon To Tell
07 Just Like Overnight
08 Better Than Ever Blues Part II
09 Play A Train Song 
10 Horseshoe Lake

Disc II 

01 Banter 
02 Conservative Christian, Right Wing Republican, Straight White American Male
03 Statistician Blues
04 Beer Run
05 Just Like Old Times
06 Carla
07 Alright Guy
08 Like A Force Of Nature
Encore:
09 Banter
10 I Can't Complain
11 BanJo Banter
12 The Blues On BanJo 
13 The Legend Of Col. Bruce Hampton Retired

todd2019-03-18d01t01.flac:54c2e11498215b3c2fa2a3d8ae521b49
todd2019-03-18d01t02.flac:b85a1d600a1deeeaf8a4b2c9103e914c
todd2019-03-18d01t03.flac:b0838eb49502a90fe2f3f0510ae39d50
todd2019-03-18d01t04.flac:6814030b021f8154a536e637ea0cf613
todd2019-03-18d01t05.flac:ba4a0991ac92d295e7ffcdd3afee5790
todd2019-03-18d01t06.flac:b4ee7e2f70a51781540139090c05ba82
todd2019-03-18d01t07.flac:b7788a1d437cdd7756987db536223524
todd2019-03-18d01t08.flac:c40c474adaca77105d73f8ae2f247f18
todd2019-03-18d01t09.flac:9c7ed0b4abce8dbd39baf1839e5fabc6
todd2019-03-18d01t10.flac:185d2e454d74c8436f29accd111c5790
todd2019-03-18d02t01.flac:26953c2d1c1aa47abe0cb01a87a84360
todd2019-03-18d02t02.flac:4159e1b74b389ecf6c7a97209a47c1b9
todd2019-03-18d02t03.flac:883b0f7ce1350e9ceda3e5b060d3c707
todd2019-03-18d02t04.flac:3e7745155c7b9c772100ea954ccf9f5d
todd2019-03-18d02t05.flac:fc9df0b4559957af3ae881d4bcc06770
todd2019-03-18d02t06.flac:cfa8056ecdc8cb83c8af134d669e4408
todd2019-03-18d02t07.flac:69c77ae234e5cdda3f45f1305333884b
todd2019-03-18d02t08.flac:7d80281c151de49c952738e807239123
todd2019-03-18d02t09.flac:f207ee3c1cb19ed51cc9bdfadb8450c1
todd2019-03-18d02t10.flac:ffb0896dbfd92211699a5bd98859f33a
todd2019-03-18d02t11.flac:20322d99c9426316c31eff63f6cbc682
todd2019-03-18d02t12.flac:3734dae6433a88d50558ce4167362824
todd2019-03-18d02t13.flac:c4aee640a0fea79fb12808e7d0920d91

length     expanded size    cdr  WAVE problems  fmt   ratio  filename
     0:50.48        8932940 B   ---   --   ---xx   flac  0.1712  todd2019-03-18d01t01.flac
     5:14.47       55500188 B   ---   --   ---xx   flac  0.1958  todd2019-03-18d01t02.flac
     3:57.67       41964428 B   ---   --   ---xx   flac  0.1740  todd2019-03-18d01t03.flac
     3:59.44       42263132 B   ---   --   ---xx   flac  0.2243  todd2019-03-18d01t04.flac
     3:16.40       34668524 B   ---   --   ---xx   flac  0.2060  todd2019-03-18d01t05.flac
     4:55.55       52167404 B   ---   --   ---xx   flac  0.1911  todd2019-03-18d01t06.flac
     3:47.08       40061660 B   ---   --   ---xx   flac  0.1986  todd2019-03-18d01t07.flac
     2:52.45       30446684 B   ---   --   ---xx   flac  0.2091  todd2019-03-18d01t08.flac
     4:52.12       51537068 B   ---   --   ---xx   flac  0.1885  todd2019-03-18d01t09.flac
     3:13.13       34075820 B   ---   --   ---xx   flac  0.1877  todd2019-03-18d01t10.flac
     6:17.26       66563996 B   ---   --   ---xx   flac  0.1880  todd2019-03-18d02t01.flac
     2:59.09       31596812 B   ---   --   ---xx   flac  0.2325  todd2019-03-18d02t02.flac
     2:27.15       25966124 B   ---   --   ---xx   flac  0.2120  todd2019-03-18d02t03.flac
     3:07.72       33156188 B   ---   --   ---xx   flac  0.2238  todd2019-03-18d02t04.flac
     4:30.12       47656268 B   ---   --   ---xx   flac  0.1978  todd2019-03-18d02t05.flac
     2:27.05       25942604 B   ---   --   ---xx   flac  0.1769  todd2019-03-18d02t06.flac
     7:46.22       82254188 B   ---   --   ---xx   flac  0.2005  todd2019-03-18d02t07.flac
     4:07.67       43728428 B   ---   --   ---xx   flac  0.1989  todd2019-03-18d02t08.flac
     0:27.45        4868684 B   ---   --   ---xx   flac  0.2059  todd2019-03-18d02t09.flac
     3:33.45       37679084 B   ---   --   ---xx   flac  0.1868  todd2019-03-18d02t10.flac
     2:12.14       23317772 B   ---   --   ---xx   flac  0.1531  todd2019-03-18d02t11.flac
     4:31.51       47924396 B   ---   --   ---xx   flac  0.1996  todd2019-03-18d02t12.flac
     3:03.27       32344748 B   ---   --   ---xx   flac  0.1704  todd2019-03-18d02t13.flac
    84:31.39      894617140 B                            0.1961  (23 files)







More information about the bittorrent mailing list