[bittorrent] Widespread Panic The Theatre At MGM National Harbor Oxon Hill, Maryland 3/17/2019 (Schoeps MK4V'S FOB)

Automated Mailer noreply-bt.e at etree.org
Mon Mar 18 06:59:42 UTC 2019


Band:           Widespread Panic
Torrent Name:   Widespread Panic The Theatre At MGM National Harbor Oxon Hill, Maryland 3/17/2019 (Schoeps MK4V'S FOB)
Uploaded by:    zmanatl
DB Link:        
Details:        http://bt.etree.org/details.php?id=604746

Contact the seeder at http://db.etree.org/zmanatl

If the link to this show does not work, it was probably removed for
being non-trade-friendly.

Description / text file:
-------------------------
Widespread Panic
The Theatre At MGM National Harbor
Oxon Hill, Maryland
3/17/2019 

Source: Schoeps MK4V'S>CMC6>Lunatec V2>Sound Devices 722 (24/44.1)
FOB/DFC/KFC/ZFC/AARP 65' From Stage, 8 1/2' High
DSP: Sound Devices 722>Sound Forge 10.0>CD Wave>flac(16)
ID3 Tagged In Foobar 2000
Recorded By: Z-Man
Seeded By: Z-Man 

Disc I 1st Set

01 Disco >
02 Rock 
03 Sleepy Monkey >
04 Space Wrangler
05 Second Skin >
06 Help Me Somebody 
07 Trouble
08 Bastards In Bubbles >
09 Pigeons

Disc II 2nd Set

01 Imitation Leather Shoes 
02 Good People >
03 Bust It Big >
04 Jam >
05 Blight >
06 Tie Your Shoes  >
07 Jam >
08 Jack >
09 Sell Sell >
10 Sharon

Disc III Encore

01 Thanks
02 May Your Glass Be Filled >
03 Honey Bee

wsp2019-03-17d01t01.flac:238c1af8b264faac8a916b0d57a349e0
wsp2019-03-17d01t02.flac:cc03b3a3f9f93a049391850614dcb630
wsp2019-03-17d01t03.flac:4482e5a127b6fcc66678c4ad78a20734
wsp2019-03-17d01t04.flac:e25c9d887621791a616c25f4b8619a58
wsp2019-03-17d01t05.flac:e5d8bf23e1d1d70488cee985a1a7651d
wsp2019-03-17d01t06.flac:58b3d9c230e4af7563f083069c0e44e2
wsp2019-03-17d01t07.flac:378090e4cc7898549e5fe17e265b04a4
wsp2019-03-17d01t08.flac:abf4b2da433ad8d2be37f5e6bef13229
wsp2019-03-17d01t09.flac:17b0796bd23d7bd247f7d6ee420f039a
wsp2019-03-17d02t01.flac:da36d0233052ab9815339f0324d5fcb7
wsp2019-03-17d02t02.flac:36fddfd64e59e23a7f3e1a5fc23e93a6
wsp2019-03-17d02t03.flac:5ca036eed57cc7231db9593b8cc7909a
wsp2019-03-17d02t04.flac:2ae4f0958fc285d85526101a3917bac8
wsp2019-03-17d02t05.flac:421c7ab35759869361e5a64fd8bf06be
wsp2019-03-17d02t06.flac:77ecffe91de5dc383e497d7e6a378726
wsp2019-03-17d02t07.flac:31b50437b68da46ebe63fa4a1136e9b6
wsp2019-03-17d02t08.flac:eebff3c9f738b07f27bb282771615976
wsp2019-03-17d02t09.flac:9a550e92c4321a7b293674dd442be889
wsp2019-03-17d02t10.flac:b31e8fc7938e7c75977db08e10d87c3d
wsp2019-03-17d03t01.flac:c2e01efdd321b9a0af6f3faa7b5644ea
wsp2019-03-17d03t02.flac:c810f6c22f7114200e2d1bde7979bbf3
wsp2019-03-17d03t03.flac:5839e94e81afe07d05e0e8a172cba722

length     expanded size    cdr  WAVE problems  fmt   ratio  filename
     7:08.56       75630956 B   ---   --   ---xx   flac  0.4638  wsp2019-03-17d01t01.flac
     8:26.00       89258444 B   ---   --   ---xx   flac  0.4595  wsp2019-03-17d01t02.flac
     9:39.60      102276764 B   ---   --   ---xx   flac  0.4250  wsp2019-03-17d01t03.flac
    10:38.66      112698476 B   ---   --   ---xx   flac  0.4760  wsp2019-03-17d01t04.flac
    18:35.08      196704860 B   ---   --   ---xx   flac  0.4560  wsp2019-03-17d01t05.flac
     6:11.03       65451500 B   ---   --   ---xx   flac  0.4664  wsp2019-03-17d01t06.flac
     4:14.60       44946764 B   ---   --   ---xx   flac  0.3992  wsp2019-03-17d01t07.flac
     3:43.09       39358412 B   ---   --   ---xx   flac  0.3900  wsp2019-03-17d01t08.flac
    11:44.60      124326764 B   ---   --   ---xx   flac  0.4882  wsp2019-03-17d01t09.flac
     4:48.39       50894972 B   ---   --   ---xx   flac  0.4921  wsp2019-03-17d02t01.flac
     6:08.66       65070476 B   ---   --   ---xx   flac  0.4837  wsp2019-03-17d02t02.flac
     8:35.45       90951884 B   ---   --   ---xx   flac  0.4922  wsp2019-03-17d02t03.flac
     5:41.66       60307676 B   ---   --   ---xx   flac  0.4274  wsp2019-03-17d02t04.flac
     8:32.38       90406220 B   ---   --   ---xx   flac  0.4568  wsp2019-03-17d02t05.flac
     6:09.08       65110460 B   ---   --   ---xx   flac  0.4865  wsp2019-03-17d02t06.flac
     7:24.51       78441596 B   ---   --   ---xx   flac  0.4122  wsp2019-03-17d02t07.flac
     8:09.08       86278460 B   ---   --   ---xx   flac  0.4510  wsp2019-03-17d02t08.flac
     7:25.60       78639164 B   ---   --   ---xx   flac  0.5032  wsp2019-03-17d02t09.flac
     8:15.09       87339212 B   ---   --   ---xx   flac  0.4719  wsp2019-03-17d02t10.flac
     0:19.29        3419852 B   ---   --   ---xx   flac  0.3353  wsp2019-03-17d03t01.flac
     5:24.69       57315932 B   ---   --   ---xx   flac  0.3600  wsp2019-03-17d03t02.flac
     6:42.59       71051612 B   ---   --   ---xx   flac  0.4916  wsp2019-03-17d03t03.flac
   164:00.44     1735880456 B                            0.4587  (22 files)






More information about the bittorrent mailing list