[bittorrent] Widespread Panic The Theatre At MGM National Harbor Oxon Hill, Maryland 3/16/2019 (Schoeps MK4V'S FOB)

Automated Mailer noreply-bt.e at etree.org
Sun Mar 17 06:25:28 UTC 2019


Band:           Widespread Panic
Torrent Name:   Widespread Panic The Theatre At MGM National Harbor Oxon Hill, Maryland 3/16/2019 (Schoeps MK4V'S FOB)
Uploaded by:    zmanatl
DB Link:        
Details:        http://bt.etree.org/details.php?id=604731

Contact the seeder at http://db.etree.org/zmanatl

If the link to this show does not work, it was probably removed for
being non-trade-friendly.

Description / text file:
-------------------------
Widespread Panic
The Theatre At MGM National Harbor
Oxon Hill, Maryland
3/16/2019 

Source: Schoeps MK4V'S>CMC6>Lunatec V2>Sound Devices 722 (24/44.1)
FOB/DFC/KFC/ZFC/AARP 65' From Stage, 8' High
DSP: Sound Devices 722>Sound Forge 10.0>CD Wave>flac(16)
ID3 Tagged In Foobar 2000
Recorded By: Z-Man
Seeded By: Z-Man 

Disc I 1st Set

01 The Take out >
02 Porch Song 
03 Can't Get High
04 Holden Oversoul >
05 Old Neighborhood 
06 Airplane >
07 Take-Off Jam >
08 Rebirtha
09 Sleepin' Man >
10 Ain't Life Grand

Disc I 2nd Set

01 Provin' Ground >
02 Impossible >
03 Provin' Ground
04 Pickin' Up The Pieces >
05 Diner >
06 Junior

Disc I 2nd Set Con’t

01 Surprise Valley >
02 Drum Solo >
03 Cease Fire >
04 I'm Not Alone > 
05 Love Tractor
Encore:
06 North 
07 And It Stoned Me 

Thanks To Freedawg, Professional Blocker, for holding down the front line!

wsp2019-03-16d01t01.flac:4e2b038c92d80fe799bec951f897cdee
wsp2019-03-16d01t02.flac:28edc7bcd7c8b5377b27e543b420dc03
wsp2019-03-16d01t03.flac:3336c4790a7a6aa28ad5be9d592c8d34
wsp2019-03-16d01t04.flac:dcec64fde99393b0b91c73e2178650b7
wsp2019-03-16d01t05.flac:414a47f703dfaa510aad25cb4382d1e9
wsp2019-03-16d01t06.flac:dd4f1980297ec2459cb319e90333c65d
wsp2019-03-16d01t07.flac:a50555d59e0dc080109d195ee071436a
wsp2019-03-16d01t08.flac:1fecb8c7cab92a5491d13bde30902f32
wsp2019-03-16d01t09.flac:cdf8ce40c1acb5e6e2e4b3dcc01c78dc
wsp2019-03-16d01t10.flac:e83d18bdaed2ea01367a4c8963a86b75
wsp2019-03-16d02t01.flac:6e5d5f7d3ee76f6674d412263ec97209
wsp2019-03-16d02t02.flac:2200b7ff8d4417d53e0d94319ea1cedd
wsp2019-03-16d02t03.flac:8f717db94e8f57fb59e07bfcaa498ff1
wsp2019-03-16d02t04.flac:c874535a853295f185a840b786e0a866
wsp2019-03-16d02t05.flac:851627c8bc226f132cca4f3d77b5ac5a
wsp2019-03-16d02t06.flac:051caddf64c708d3abd4264320361bfc
wsp2019-03-16d03t01.flac:05a5d1e1a705ddc455b5e7e22fc6b82a
wsp2019-03-16d03t02.flac:a6488d2282304869bc203a2fdee37b58
wsp2019-03-16d03t03.flac:83beaeb186e0fe2760be94871bf7074b
wsp2019-03-16d03t04.flac:d33861b5c2edce3206b35544c0ffa420
wsp2019-03-16d03t05.flac:7ae496abbe65efdc60b32b762cee5ca3
wsp2019-03-16d03t06.flac:fd9c1746b94a49c4e552db79aebf11d0
wsp2019-03-16d03t07.flac:4bd101beae0576f6f3774d8e560636a1

 length     expanded size    cdr  WAVE problems  fmt   ratio  filename
     2:41.12       28428668 B   ---   --   ---xx   flac  0.4112  wsp2019-03-16d01t01.flac
     5:44.29       60749852 B   ---   --   ---xx   flac  0.4768  wsp2019-03-16d01t02.flac
     3:45.56       39821756 B   ---   --   ---xx   flac  0.4937  wsp2019-03-16d01t03.flac
     6:27.74       68440892 B   ---   --   ---xx   flac  0.4778  wsp2019-03-16d01t04.flac
     6:42.06       70926956 B   ---   --   ---xx   flac  0.4910  wsp2019-03-16d01t05.flac
     6:20.33       67109660 B   ---   --   ---xx   flac  0.4460  wsp2019-03-16d01t06.flac
     9:03.38       95874620 B   ---   --   ---xx   flac  0.4497  wsp2019-03-16d01t07.flac
     9:08.67       96824828 B   ---   --   ---xx   flac  0.4810  wsp2019-03-16d01t08.flac
     7:23.24       78201692 B   ---   --   ---xx   flac  0.5142  wsp2019-03-16d01t09.flac
     5:35.65       59246924 B   ---   --   ---xx   flac  0.4808  wsp2019-03-16d01t10.flac
     7:55.10       83813564 B   ---   --   ---xx   flac  0.4736  wsp2019-03-16d02t01.flac
     8:17.68       87830780 B   ---   --   ---xx   flac  0.4932  wsp2019-03-16d02t02.flac
     1:28.26       15584396 B   ---   --   ---xx   flac  0.4668  wsp2019-03-16d02t03.flac
     7:21.44       77895932 B   ---   --   ---xx   flac  0.4460  wsp2019-03-16d02t04.flac
    15:48.53      167351900 B   ---   --   ---xx   flac  0.4703  wsp2019-03-16d02t05.flac
     6:26.31       68163356 B   ---   --   ---xx   flac  0.5224  wsp2019-03-16d02t06.flac
    11:52.39      125688572 B   ---   --   ---xx   flac  0.4775  wsp2019-03-16d03t01.flac
    12:28.17      131987228 B   ---   --   ---xx   flac  0.4497  wsp2019-03-16d03t02.flac
     8:43.69       92419532 B   ---   --   ---xx   flac  0.4653  wsp2019-03-16d03t03.flac
     6:43.03       71096300 B   ---   --   ---xx   flac  0.4488  wsp2019-03-16d03t04.flac
     6:53.66       73008476 B   ---   --   ---xx   flac  0.5110  wsp2019-03-16d03t05.flac
     8:39.31       91624556 B   ---   --   ---xx   flac  0.5066  wsp2019-03-16d03t06.flac
     7:28.13       79057820 B   ---   --   ---xx   flac  0.4373  wsp2019-03-16d03t07.flac
   173:00.49     1831148260 B                            0.4741  (23 files)







More information about the bittorrent mailing list