[bittorrent] gd1989-04-03.145689.ots.akg460.ackerman.miller.noel.t-flac16

Automated Mailer noreply-bt.e at etree.org
Sat Mar 16 14:53:46 UTC 2019


Band:           Grateful Dead
Torrent Name:   gd1989-04-03.145689.ots.akg460.ackerman.miller.noel.t-flac16
Uploaded by:    norm
DB Link:        
Details:        http://bt.etree.org/details.php?id=604719

Contact the seeder at http://db.etree.org/norm

If the link to this show does not work, it was probably removed for
being non-trade-friendly.

Description / text file:
-------------------------
Grateful Dead

April 3, 1989
Civic Arena, 
Pittsburgh, PA
Sets I & II

Ackerman Archives

Recording Info:
Ray Ackerman's Master Audience Cassettes; AKG 460 w/ck63 caps > AKG B18 phantom power unit > Sony D5

Transfer Info:
Master Cassettes (Sony TCK71) > Grace Design Lunatec V3 (Oade modified) > M-Audio MicroTrack II (wav 24-bit/96k)

Edited & Mastered by Joe Noel
WAV > Audacity > FLAC 24/96

This file set is 16 bit @ 44.1

Patch info:
- shnid 133939 (AKG) supplies
- s2t05; 07:26 - end
- s2t06; start - 00:27

Notes:
- Thanks to Ray for sharing his masters
- Thanks to Charlie for directing traffic
- Grateful for Dan Tepper's efforts that supply the patch source
- tape pause & flip were cross faded in set one
- Beer Barrel Polka tuning after Jack A Roe
- last El Paso: 04-09-87 [157]

- Set I -
s1t01 - Greatest Story Ever Told ->
s1t02 - Bertha ->
s1t03 - Walkin' Blues
s1t04 - Jack A Roe
s1t05 - El Paso
s1t06 - Built To Last
s1t07 - Victim or the Crime
s1t08 - Just Like Tom Thumb's Blues ->
s1t09 - Don't Ease Me In

- Set II -
s2t01 - Blow Away
s2t02 - Estimated Prophet ->
s2t03 - Crazy Fingers ->
s2t04 - Uncle John's Band ->
s2t05 - Drums ->
s2t06 - Space ->
s2t07 - Gimme Some Lovin' ->
s2t08 - I Need A Miracle ->
s2t09 - Stella Blue ->
s2t10 - Sugar Magnolia
	- encore
s2t11 - Johnny B. Goode ->
s2t12 - Black Muddy River

Tagging notes:
Show information is embedded within the header of each flac file. 
It will display on any player capable of directly playing flac files. 
If converted to wav during processing, all tags will be stripped, 
however audio data will remain unaffected. If you must 
transcode to a lossy format, do so directly Flac > Lossy.
Use ffp or st5 to validate audio integrity.
Md5 values will change if tagging is altered.
[J.Noel 09 April 2018]

    length     expanded size    cdr  WAVE problems  fmt   ratio  filename
     4:08.23       43801340 B   ---   --   ---xx   flac  0.5655  gd89-04-03.s1t01.flac
     7:17.18       77129180 B   ---   --   ---xx   flac  0.5870  gd89-04-03.s1t02.flac
     6:43.57       71223308 B   ---   --   ---xx   flac  0.5707  gd89-04-03.s1t03.flac
     5:58.46       63259436 B   ---   --   ---xx   flac  0.5723  gd89-04-03.s1t04.flac
     5:30.51       58331996 B   ---   --   ---xx   flac  0.5760  gd89-04-03.s1t05.flac
     4:39.62       49361468 B   ---   --   ---xx   flac  0.5944  gd89-04-03.s1t06.flac
     7:38.42       80890028 B   ---   --   ---xx   flac  0.5658  gd89-04-03.s1t07.flac
     5:05.43       53903180 B   ---   --   ---xx   flac  0.5704  gd89-04-03.s1t08.flac
     3:23.22       35860988 B   ---   --   ---xx   flac  0.6148  gd89-04-03.s1t09.flac
     8:21.63       88524620 B   ---   --   ---xx   flac  0.5623  gd89-04-03.s2t01.flac
    10:45.40      113872124 B   ---   --   ---xx   flac  0.5465  gd89-04-03.s2t02.flac
     8:08.28       86149100 B   ---   --   ---xx   flac  0.5296  gd89-04-03.s2t03.flac
    12:01.62      127330268 B   ---   --   ---xx   flac  0.5358  gd89-04-03.s2t04.flac
     7:36.11       80464316 B   ---   --   ---xx   flac  0.5025  gd89-04-03.s2t05.flac
     9:02.14       95641772 B   ---   --   ---xx   flac  0.4497  gd89-04-03.s2t06.flac
     5:30.71       58379036 B   ---   --   ---xx   flac  0.5697  gd89-04-03.s2t07.flac
     4:30.18       47670380 B   ---   --   ---xx   flac  0.5775  gd89-04-03.s2t08.flac
     7:55.29       83858252 B   ---   --   ---xx   flac  0.5080  gd89-04-03.s2t09.flac
     8:48.05       93151004 B   ---   --   ---xx   flac  0.5886  gd89-04-03.s2t10.flac
     3:59.13       42190220 B   ---   --   ---xx   flac  0.5851  gd89-04-03.s2t11.flac
     6:37.08       70049660 B   ---   --   ---xx   flac  0.5288  gd89-04-03.s2t12.flac
   143:42.51     1521041676 B                            0.5507  (21 files)



More information about the bittorrent mailing list