[bittorrent] Widespread Panic The Theatre At MGM National Harbor Oxon Hill, Maryland 3/15/2019 (Schoeps MK4V'S FOB)

Automated Mailer noreply-bt.e at etree.org
Sat Mar 16 06:55:29 UTC 2019


Band:           Widespread Panic
Torrent Name:   Widespread Panic The Theatre At MGM National Harbor Oxon Hill, Maryland 3/15/2019 (Schoeps MK4V'S FOB)
Uploaded by:    zmanatl
DB Link:        
Details:        http://bt.etree.org/details.php?id=604715

Contact the seeder at http://db.etree.org/zmanatl

If the link to this show does not work, it was probably removed for
being non-trade-friendly.

Description / text file:
-------------------------
Widespread Panic
The Theatre At MGM National Harbor
Oxon Hill, Maryland
3/15/2019 

Source: Schoeps MK4V'S>CMC6>Lunatec V2>Sound Devices 722 (24/44.1)
FOB/DFC/KFC/ZFC/AARP 65' From Stage, 7 1/2' High
DSP: Sound Devices 722>Sound Forge 10.0>CD Wave>flac(16)
ID3 Tagged In Foobar 2000
Recorded By: Z-Man
Seeded By: Z-Man 

Disc I 1st Set

01 Greeting
02 A Of D >
03 Tall Boy >
04 Bear’s Gone Fishin’ >
05 Weak Brain, Narrow Mind >
05 Greta >
06 Jam >
08 Better Off
09 Send Your Mind 
10 Walkin’ >
11 One-Arm Steve

Disc I 2nd Set

01 Big Wooly Mammoth >
02 Walk On
03 All Time Low
04 Cotton Was King >
05 Honkey Red >
06 Jam >
07 Drivin’ Song >
08 Tickle The Truth >
09 Papa’s Home >

Disc I 2nd Set Con’t

01 Jam >
02 Climb To Safety >
03 Jam >
04 Drivin' Song >
05 Breathin' Slow >
06 Taildragger
Encore:
07 Expiration Day >
08 Protein Drink >
09 Sewing Machine 

wsp2019-03-15d01t01.flac:38797704bb824e4fa5b894f4e0a63996
wsp2019-03-15d01t02.flac:0d4da62f304a43d791a40927f83db5f3
wsp2019-03-15d01t03.flac:faf6f506b09264e04af1d6abf52c285b
wsp2019-03-15d01t04.flac:f0f442ea01ea1fbdf0a2b9f8e1ad13ee
wsp2019-03-15d01t05.flac:c1328b675bd5049e12fd1a4d5d24451a
wsp2019-03-15d01t06.flac:e9a920b0eede575886ebb510ea4c2b45
wsp2019-03-15d01t07.flac:f41c099522d557762c0fbe4bfeefb3fb
wsp2019-03-15d01t08.flac:1ba244931d6a4492fc0598e5a3cbc9a8
wsp2019-03-15d01t09.flac:8a8662a58652e2ef91534f626cb65bf1
wsp2019-03-15d01t10.flac:4a782a1f2a11f2ef872ea0d5e157e3e2
wsp2019-03-15d01t11.flac:9507ea1fe31c2a7d5cbf1cde12513a29
wsp2019-03-15d02t01.flac:bf69a34dd2f09de307b82610b1dd8066
wsp2019-03-15d02t02.flac:edff624e509d364ca27dd462e21f1b70
wsp2019-03-15d02t03.flac:82397748aaa80d9e98dc9a238571b04b
wsp2019-03-15d02t04.flac:f72f2a22f1f91c72934eafa65eb56694
wsp2019-03-15d02t05.flac:1df10504aac5dc062ce109b50ecae0f5
wsp2019-03-15d02t06.flac:6789279228e326b1967b669e169fe6f8
wsp2019-03-15d02t07.flac:db74dd2ee61c8680308f1ea29f0f8bfd
wsp2019-03-15d02t08.flac:0428d3bc5bf46c417ac82ed8e589a24e
wsp2019-03-15d02t09.flac:052f2fe08ab4e574e8c3f47cfe07ac71
wsp2019-03-15d03t01.flac:e39a5c7e66a51e0ac3551f9cf375fc4e
wsp2019-03-15d03t02.flac:6b59d038c52b169b518bb643ce54c803
wsp2019-03-15d03t03.flac:5d4c67beb3ff7cf0a197ec7946021ff1
wsp2019-03-15d03t04.flac:77e4294d9b9acd6952ee6bd20f4d1480
wsp2019-03-15d03t05.flac:21bba383b4cf5504403e3f623c8ae1e0
wsp2019-03-15d03t06.flac:290068ce4c53645dda82ab9edb3d6312
wsp2019-03-15d03t07.flac:59b1d1410b088dae9e95d6ec2b15cb16
wsp2019-03-15d03t08.flac:8b890cbe6d1653764c48b8d435aa5615
wsp2019-03-15d03t09.flac:ed71d0cd9d5a16435042e96bc4cdf0ed

 length     expanded size    cdr  WAVE problems  fmt   ratio  filename
     0:36.01        6352796 B   ---   --   ---xx   flac  0.4068  wsp2019-03-15d01t01.flac
     3:29.28       36933500 B   ---   --   ---xx   flac  0.4743  wsp2019-03-15d01t02.flac
     6:46.67       71776028 B   ---   --   ---xx   flac  0.5100  wsp2019-03-15d01t03.flac
    10:23.66      110052476 B   ---   --   ---xx   flac  0.4850  wsp2019-03-15d01t04.flac
     4:45.21       50323436 B   ---   --   ---xx   flac  0.4820  wsp2019-03-15d01t05.flac
     6:09.00       65091644 B   ---   --   ---xx   flac  0.5163  wsp2019-03-15d01t06.flac
     7:44.07       81866108 B   ---   --   ---xx   flac  0.4901  wsp2019-03-15d01t07.flac
     5:09.46       54615836 B   ---   --   ---xx   flac  0.4894  wsp2019-03-15d01t08.flac
     3:25.49       36277292 B   ---   --   ---xx   flac  0.4677  wsp2019-03-15d01t09.flac
     5:50.52       61862348 B   ---   --   ---xx   flac  0.4976  wsp2019-03-15d01t10.flac
     4:17.62       45480668 B   ---   --   ---xx   flac  0.4983  wsp2019-03-15d01t11.flac
     8:55.01       94376396 B   ---   --   ---xx   flac  0.4967  wsp2019-03-15d02t01.flac
     7:21.00       77792444 B   ---   --   ---xx   flac  0.4978  wsp2019-03-15d02t02.flac
     6:23.16       67598876 B   ---   --   ---xx   flac  0.4931  wsp2019-03-15d02t03.flac
     7:47.02       82383548 B   ---   --   ---xx   flac  0.4660  wsp2019-03-15d02t04.flac
     7:33.07       79925708 B   ---   --   ---xx   flac  0.4615  wsp2019-03-15d02t05.flac
     4:24.41       46666076 B   ---   --   ---xx   flac  0.3580  wsp2019-03-15d02t06.flac
     4:42.45       49850684 B   ---   --   ---xx   flac  0.4629  wsp2019-03-15d02t07.flac
     6:36.59       69993212 B   ---   --   ---xx   flac  0.5024  wsp2019-03-15d02t08.flac
    10:10.67      107761628 B   ---   --   ---xx   flac  0.4745  wsp2019-03-15d02t09.flac
     3:22.25       35691644 B   ---   --   ---xx   flac  0.3901  wsp2019-03-15d03t01.flac
     5:45.07       60874508 B   ---   --   ---xx   flac  0.4895  wsp2019-03-15d03t02.flac
     4:13.26       44690396 B   ---   --   ---xx   flac  0.4637  wsp2019-03-15d03t03.flac
     2:53.68       30677180 B   ---   --   ---xx   flac  0.4524  wsp2019-03-15d03t04.flac
     3:19.49       35218892 B   ---   --   ---xx   flac  0.4418  wsp2019-03-15d03t05.flac
     6:50.39       72415772 B   ---   --   ---xx   flac  0.4970  wsp2019-03-15d03t06.flac
     5:10.47       54794588 B   ---   --   ---xx   flac  0.3871  wsp2019-03-15d03t07.flac
     5:14.09       55410812 B   ---   --   ---xx   flac  0.4595  wsp2019-03-15d03t08.flac
     7:18.35       77345564 B   ---   --   ---xx   flac  0.5142  wsp2019-03-15d03t09.flac
   166:40.42     1764100060 B                            0.4772  (29 files)










More information about the bittorrent mailing list