[bittorrent] gd1989-04-02.145673.ots.akg460.ackerman.miller.noel.t-flac16

Automated Mailer noreply-bt.e at etree.org
Sat Mar 16 00:46:42 UTC 2019


Band:           Grateful Dead
Torrent Name:   gd1989-04-02.145673.ots.akg460.ackerman.miller.noel.t-flac16
Uploaded by:    norm
DB Link:        
Details:        http://bt.etree.org/details.php?id=604714

Contact the seeder at http://db.etree.org/norm

If the link to this show does not work, it was probably removed for
being non-trade-friendly.

Description / text file:
-------------------------
141669 24 > 16 - same HASH served @ Lossless Legs

Grateful Dead

April 2, 1989
Civic Arena, 
Pittsburgh, PA
Sets I & II

Ackerman Archives

Recording Info:
Ray Ackerman's Master Audience Cassettes; AKG 460 w/ck63 caps > AKG B18 phantom power unit > Sony D5

Transfer Info:
Master Cassettes (Sony TCK71) > Grace Design Lunatec V3 (Oade modified) > M-Audio MicroTrack II (wav 24-bit/96k)

Edited & Mastered by Joe Noel
WAV > Audacity > FLAC 24/96

This file set is 16 bit @ 44.1

Patch info:
- shnid 135452 (Nak CM300/CP4) supplies
- s1t03; 03:55 - end
- s1t04; start - 00:10
- s2t04; 09:52 - end
- s2t05; start - 00:05

Notes:
- Thanks to Ray for sharing his masters
- Thanks to Charlie for directing traffic

- Set I -
s1t01 - Iko Iko ->
s1t02 - Little Red Rooster
s1t03 - Dire Wolf
s1t04 - Its All Over Now
s1t05 - We Can Run
s1t06 - Brown Eyed Women
s1t07 - Queen Jane Approximately
s1t08 - Tennessee Jed ->
s1t09 - The Music Never Stopped

- Set II -
s2t01 - Shakedown Street
s2t02 - Man Smart (Women are Smarter) ->
s2t03 - Foolish Heart ->
s2t04 - Drums ->
s2t05 - Space ->
s2t06 - The Wheel ->
s2t07 - Dear Mr. Fantasy ->
s2t08 - Hey Jude Reprise ->
s2t09 - Around and Around
s2t10 - Goin' Down The Road Feelin' Bad ->
s2t11 - Turn On Your Love Light
	encore
s2t12 - It's All Over Now Baby Blue

Tagging notes:
Show information is embedded within the header of each flac file. 
It will display on any player capable of directly playing flac files. 
If converted to wav during processing, all tags will be stripped, 
however audio data will remain unaffected. If you must 
transcode to a lossy format, do so directly Flac > Lossy.
Use ffp or st5 to validate audio integrity.
Md5 values will change if tagging is altered.
[J.Noel 09 April 2018]

    length     expanded size    cdr  WAVE problems  fmt   ratio  filename
     5:45.36       60942716 B   ---   --   ---xx   flac  0.5692  gd89-04-02.s1t01.flac
     9:07.05       96502604 B   ---   --   ---xx   flac  0.5603  gd89-04-02.s1t02.flac
     4:10.58       44236460 B   ---   --   ---xx   flac  0.5713  gd89-04-02.s1t03.flac
     8:15.64       87468572 B   ---   --   ---xx   flac  0.5725  gd89-04-02.s1t04.flac
     5:21.41       56720876 B   ---   --   ---xx   flac  0.5685  gd89-04-02.s1t05.flac
     5:02.71       53439836 B   ---   --   ---xx   flac  0.5822  gd89-04-02.s1t06.flac
     6:34.52       69623948 B   ---   --   ---xx   flac  0.5526  gd89-04-02.s1t07.flac
     7:37.51       80734796 B   ---   --   ---xx   flac  0.5638  gd89-04-02.s1t08.flac
     7:56.25       84025244 B   ---   --   ---xx   flac  0.5657  gd89-04-02.s1t09.flac
    11:47.41      124811276 B   ---   --   ---xx   flac  0.5715  gd89-04-02.s2t01.flac
     8:18.39       87938972 B   ---   --   ---xx   flac  0.5721  gd89-04-02.s2t02.flac
     7:50.27       82971548 B   ---   --   ---xx   flac  0.5703  gd89-04-02.s2t03.flac
    10:56.54      115845452 B   ---   --   ---xx   flac  0.5098  gd89-04-02.s2t04.flac
     8:52.72       94014188 B   ---   --   ---xx   flac  0.4753  gd89-04-02.s2t05.flac
     4:27.21       47148236 B   ---   --   ---xx   flac  0.5624  gd89-04-02.s2t06.flac
     5:11.57       54994508 B   ---   --   ---xx   flac  0.5868  gd89-04-02.s2t07.flac
     2:35.32       27417308 B   ---   --   ---xx   flac  0.5803  gd89-04-02.s2t08.flac
     3:50.59       40710812 B   ---   --   ---xx   flac  0.5978  gd89-04-02.s2t09.flac
     5:43.24       60561692 B   ---   --   ---xx   flac  0.5731  gd89-04-02.s2t10.flac
     5:44.39       60773372 B   ---   --   ---xx   flac  0.5802  gd89-04-02.s2t11.flac
     6:33.73       69496940 B   ---   --   ---xx   flac  0.5345  gd89-04-02.s2t12.flac
   141:45.41     1500379356 B                            0.5584  (21 files)



More information about the bittorrent mailing list