[bittorrent] gd1987-03-27.145672.ots.at835b.akg.d12e.blend.ackerman.noel.t-flac16

Automated Mailer noreply-bt.e at etree.org
Fri Mar 15 20:57:47 UTC 2019


Band:           Grateful Dead
Torrent Name:   gd1987-03-27.145672.ots.at835b.akg.d12e.blend.ackerman.noel.t-flac16
Uploaded by:    norm
DB Link:        
Details:        http://bt.etree.org/details.php?id=604711

Contact the seeder at http://db.etree.org/norm

If the link to this show does not work, it was probably removed for
being non-trade-friendly.

Description / text file:
-------------------------
Grateful Dead

March 27, 1987
Hartford Civic Center 
Hartford, CT 
Sets I & II

Ackerman Archives

Ray Ackerman’s Master Audience Cassettes; 
Two x Audio Technica 835b + One x AKG D12e center fill > Realistic 32-1105A, 4 channel stereo mixer > Sony TCD5 (OTS) 

Transfer info;
Master Cassettes (Nakamichi 700 MKii) > Oade modified Grace Design Lunatec V3 > M-Audio MicroTrack II > WAV 24/96

Edited & Mastered by Joe Noel; 
WAV > Audacity > FLAC 24/96
October 19, 2018

This file set is 16 bit @ 44.1

Notes:
- Thanks to Ray for the hi-res upgrade.
- Thanks to  for supplying the patch source.
- Pitch corrected
- tape pauses & flips cross faded
- 25 count BIODTL :)
- Hartford (GD) + giggle juice = happy feet.

- Set I -
s1t01 - Alabama Getaway ->
s1t02 - Greatest Story Ever Told
s1t03 - West LA Fadeaway
s1t04 - Little Red Rooster
s1t05 - Brown Eyed Women
s1t06 - Beat It on Down the Line
s1t07 - Tennessee Jed
s1t08 - The Music Never Stopped

- Set II - 
s2t01 - Touch of Grey ->
s2t02 - Sampson and Delilah ->
s2t03 - Cumberland Blues
s2t04 - Estimated Prophet ->
s2t05 - Eyes of the World ->
s2t06 - Drums ->
s2t07 - Space ->
s2t08 - Uncle John's Band ->
s2t09 - Morning Dew
- encore -
s2t10 - Johnny B. Goode

Tagging notes:
Show information is embedded within the header of each flac file. 
It will display on any player capable of directly playing flac files. 
If converted to wav during processing, all tags will be stripped, 
however audio data will remain unaffected. If you must 
transcode to a lossy format, do so directly Flac > Lossy.
Use ffp or st5 to validate audio integrity.
Md5 values will change if tagging is altered.
[J.Noel 20 October 2018]

    length     expanded size    cdr  WAVE problems  fmt   ratio  filename
     4:53.07       51701708 B   ---   --   ---xx   flac  0.6075  gd87-03-27.s1t01.flac
     4:25.55       46875404 B   ---   --   ---xx   flac  0.6030  gd87-03-27.s1t02.flac
     7:36.03       80445500 B   ---   --   ---xx   flac  0.5792  gd87-03-27.s1t03.flac
     8:10.31       86508956 B   ---   --   ---xx   flac  0.5833  gd87-03-27.s1t04.flac
     5:55.06       62636156 B   ---   --   ---xx   flac  0.5869  gd87-03-27.s1t05.flac
     3:24.50       36103244 B   ---   --   ---xx   flac  0.6255  gd87-03-27.s1t06.flac
     8:38.05       91387004 B   ---   --   ---xx   flac  0.5902  gd87-03-27.s1t07.flac
     8:12.29       86857052 B   ---   --   ---xx   flac  0.5944  gd87-03-27.s1t08.flac
     6:10.20       65315084 B   ---   --   ---xx   flac  0.6220  gd87-03-27.s2t01.flac
     8:05.21       85603436 B   ---   --   ---xx   flac  0.6127  gd87-03-27.s2t02.flac
     5:32.57       58698908 B   ---   --   ---xx   flac  0.5968  gd87-03-27.s2t03.flac
    10:16.18      108704780 B   ---   --   ---xx   flac  0.5900  gd87-03-27.s2t04.flac
     8:24.16       88943276 B   ---   --   ---xx   flac  0.5971  gd87-03-27.s2t05.flac
     9:08.46       96775436 B   ---   --   ---xx   flac  0.5273  gd87-03-27.s2t06.flac
     7:29.49       79318892 B   ---   --   ---xx   flac  0.4995  gd87-03-27.s2t07.flac
     7:18.31       77336156 B   ---   --   ---xx   flac  0.6031  gd87-03-27.s2t08.flac
    11:09.15      118046924 B   ---   --   ---xx   flac  0.5666  gd87-03-27.s2t09.flac
     4:48.33       50880860 B   ---   --   ---xx   flac  0.6297  gd87-03-27.s2t10.flac
   129:38.42     1372138776 B                            0.5854  (18 files)



More information about the bittorrent mailing list