[bittorrent] Louisa Hall Solo Acoustic Hill Country BBQ Washington DC 3/14/2019 (Schoeps MK4V'S FOB)

Automated Mailer noreply-bt.e at etree.org
Fri Mar 15 14:20:27 UTC 2019


Band:           Other
Torrent Name:   Louisa Hall Solo Acoustic Hill Country BBQ Washington DC 3/14/2019 (Schoeps MK4V'S FOB)
Uploaded by:    zmanatl
DB Link:        
Details:        http://bt.etree.org/details.php?id=604705

Contact the seeder at http://db.etree.org/zmanatl

If the link to this show does not work, it was probably removed for
being non-trade-friendly.

Description / text file:
-------------------------
Louisa Hall Solo Acoustic
Hill Country BBQ
Washinton DC
3/14/2019 

Source: Schoeps MK4V'S>CMC6>Lunatec V2>Sound Devices 722 (24/44.1)
FOB/DFC/KFC/ZFC/AARP Center Section, Row , Between Seats , 6' High
DSP: Sound Devices 722>Sound Forge 10.0>CD Wave>flac(16)
ID3 Tagged In Foobar 2000
Recorded By: Z-Man
Seeded By: Z-Man 

Disc I 

01 Greeting
02 Internet Love Song
03 Shakehill Butchers
04 Fears
05 Barista Boyfriend
06 American Dream
07 Beard
08 Stephen Frye
09 Not Fair
10 *Leading Lady
11 Hey You
12 Oh Please Won't You Be My Misconnection
13 Awkward

* First Time Played

louisa2019-03-14d01t01.flac:b14e2ade9c6a2a09f4022de6fd691c40
louisa2019-03-14d01t02.flac:7cdd7f90c5cf3d563979cbe2a73bba63
louisa2019-03-14d01t03.flac:9b0a503616e9e6bb1c6393c0567468c1
louisa2019-03-14d01t04.flac:0d29a4e1a7df03220145a5b75a195d63
louisa2019-03-14d01t05.flac:fe4812e90e4596d36079f7bd60dde9da
louisa2019-03-14d01t06.flac:7ebe4467d6c5ae8971f589b2e95a2461
louisa2019-03-14d01t07.flac:e929bd9b817c865da9b96845cce2c836
louisa2019-03-14d01t08.flac:bf5cb77bf07fcaf365ab804c6c25d197
louisa2019-03-14d01t09.flac:a0123af1b0b44cae37855e0249c60d4f
louisa2019-03-14d01t10.flac:4f7fa3c17645f92ec95880f7a2b18cb8
louisa2019-03-14d01t11.flac:779514a1ff40c1c72865fb5f1ce0643d
louisa2019-03-14d01t12.flac:01b9d510cb159cb2a0c123a1fe550dd1
louisa2019-03-14d01t13.flac:437fbd7772ae379e66f0ba1f67e122b7

length     expanded size    cdr  WAVE problems  fmt   ratio  filename
     0:47.68        8450780 B   ---   --   ---xx   flac  0.4395  louisa2019-03-14d01t01.flac
     4:49.35       51061964 B   ---   --   ---xx   flac  0.4669  louisa2019-03-14d01t02.flac
     5:52.00       62092844 B   ---   --   ---xx   flac  0.4289  louisa2019-03-14d01t03.flac
     4:09.53       44048300 B   ---   --   ---xx   flac  0.4808  louisa2019-03-14d01t04.flac
     3:34.62       37895468 B   ---   --   ---xx   flac  0.4530  louisa2019-03-14d01t05.flac
     2:48.41       29731676 B   ---   --   ---xx   flac  0.5205  louisa2019-03-14d01t06.flac
     2:53.39       30608972 B   ---   --   ---xx   flac  0.4314  louisa2019-03-14d01t07.flac
     4:26.20       46969484 B   ---   --   ---xx   flac  0.4709  louisa2019-03-14d01t08.flac
     3:04.60       32598764 B   ---   --   ---xx   flac  0.4051  louisa2019-03-14d01t09.flac
     3:21.00       35456444 B   ---   --   ---xx   flac  0.4088  louisa2019-03-14d01t10.flac
     2:31.62       26782268 B   ---   --   ---xx   flac  0.4832  louisa2019-03-14d01t11.flac
     4:22.50       46334444 B   ---   --   ---xx   flac  0.5048  louisa2019-03-14d01t12.flac
     4:06.52       43516748 B   ---   --   ---xx   flac  0.4274  louisa2019-03-14d01t13.flac
    46:49.17      495548156 B                            0.4560  (13 files)






More information about the bittorrent mailing list