[bittorrent] gd1988-09-09.145671.ots.akg460.ackerman.miller.noel.t-flac16

Automated Mailer noreply-bt.e at etree.org
Fri Mar 15 14:03:26 UTC 2019


Band:           Grateful Dead
Torrent Name:   gd1988-09-09.145671.ots.akg460.ackerman.miller.noel.t-flac16
Uploaded by:    norm
DB Link:        
Details:        http://bt.etree.org/details.php?id=604703

Contact the seeder at http://db.etree.org/norm

If the link to this show does not work, it was probably removed for
being non-trade-friendly.

Description / text file:
-------------------------
141742 24 > 16 - same HASH served @ Lossless Legs

Grateful Dead

September 9, 1988
The Spectrum, 
Philadelphia, PA
Sets I & II

Ackerman Archives

Recording Info:
Ray Ackerman's Master Audience Cassettes; AKG 460 w/ck63 caps > AKG B18 phantom power unit > Sony D5

Transfer Info:
Master Cassettes (Sony TCK71) > Grace Design Lunatec V3 (Oade modified) > M-Audio MicroTrack II (wav 24-bit/96k)

Edited & Mastered by Joe Noel
WAV > Audacity > FLAC 24/96
April 19, 1989

This file set is 16 bit @ 44.1

Patch info:
- shnid 120488 (Schoeps) supplies
- s2t05; 08:35 - end
- s2t06; start - 00:52

Notes:
- Thanks to Ray for sharing his masters
- Thanks to Charlie for coordinating
- Grateful for the unknown taper's efforts that supplies the patch

- Set I -
s1t01 - Hell in a Bucket ->
s1t02 - Sugaree
s1t03 - New Minglewood Blues
s1t04 - Brown Eyed Women
s1t05 - Me and My Uncle ->
s1t06 - Big River
s1t07 - Candyman
s1t08 - Queen Jane Approximately ->
s1t09 - Don't Ease Me In

- Set II -
s2t01 - China Cat Sunflower ->
s2t02 - I Know You Rider ->
s2t03 - Playing in the Band ->
s2t04 - Terrapin Station ->
s2t05 - Drums ->
s2t06 - Space ->
s2t07 - I Will Take You Home ->
s2t08 - All Along The Watchtower ->
s2t09 - Believe It or Not ->
s2t10 - Sugar Magnolia
	encore
s2t11 - Quinn the Eskimo (The Mighty Quinn)

Tagging notes:
Show information is embedded within the header of each flac file. 
It will display on any player capable of directly playing flac files. 
If converted to wav during processing, all tags will be stripped, 
however audio data will remain unaffected. If you must 
transcode to a lossy format, do so directly Flac > Lossy.
Use ffp or st5 to validate audio integrity.
Md5 values will change if tagging is altered.
[J.Noel 19 April 2018]

    length     expanded size    cdr  WAVE problems  fmt   ratio  filename
     6:34.63       69649820 B   ---   --   ---xx   flac  0.6569  gd88-09-09.s1t01.flac
     7:50.34       82988012 B   ---   --   ---xx   flac  0.6527  gd88-09-09.s1t02.flac
     8:23.02       88733948 B   ---   --   ---xx   flac  0.6658  gd88-09-09.s1t03.flac
     6:05.16       64423676 B   ---   --   ---xx   flac  0.6701  gd88-09-09.s1t04.flac
     3:12.07       33885308 B   ---   --   ---xx   flac  0.7137  gd88-09-09.s1t05.flac
     5:22.59       56939612 B   ---   --   ---xx   flac  0.7009  gd88-09-09.s1t06.flac
     7:42.70       81661484 B   ---   --   ---xx   flac  0.6372  gd88-09-09.s1t07.flac
     5:55.50       62739644 B   ---   --   ---xx   flac  0.6646  gd88-09-09.s1t08.flac
     3:41.54       39111452 B   ---   --   ---xx   flac  0.7073  gd88-09-09.s1t09.flac
     5:54.11       62471516 B   ---   --   ---xx   flac  0.6563  gd88-09-09.s2t01.flac
     6:02.23       63910940 B   ---   --   ---xx   flac  0.6765  gd88-09-09.s2t02.flac
     7:41.05       81332204 B   ---   --   ---xx   flac  0.6308  gd88-09-09.s2t03.flac
    12:32.44      132756332 B   ---   --   ---xx   flac  0.6251  gd88-09-09.s2t04.flac
     8:55.60       94515164 B   ---   --   ---xx   flac  0.5782  gd88-09-09.s2t05.flac
     5:19.28       56337500 B   ---   --   ---xx   flac  0.5441  gd88-09-09.s2t06.flac
     4:02.11       42714716 B   ---   --   ---xx   flac  0.5974  gd88-09-09.s2t07.flac
     5:28.01       57861596 B   ---   --   ---xx   flac  0.6991  gd88-09-09.s2t08.flac
     9:23.00       99313244 B   ---   --   ---xx   flac  0.6131  gd88-09-09.s2t09.flac
    10:06.13      106929020 B   ---   --   ---xx   flac  0.6835  gd88-09-09.s2t10.flac
     4:57.47       52501388 B   ---   --   ---xx   flac  0.6707  gd88-09-09.s2t11.flac
   135:10.73     1430776576 B                            0.6477  (20 files)



More information about the bittorrent mailing list