[bittorrent] gd1988-09-08.145670.ots.akg460.ackerman.miller.noel.t-flac16

Automated Mailer noreply-bt.e at etree.org
Fri Mar 15 12:29:48 UTC 2019


Band:           Grateful Dead
Torrent Name:   gd1988-09-08.145670.ots.akg460.ackerman.miller.noel.t-flac16
Uploaded by:    norm
DB Link:        
Details:        http://bt.etree.org/details.php?id=604702

Contact the seeder at http://db.etree.org/norm

If the link to this show does not work, it was probably removed for
being non-trade-friendly.

Description / text file:
-------------------------
141741 24 > 16 - same HASH served @ Lossless Legs

Grateful Dead

September 8, 1988
The Spectrum, 
Philadelphia, PA
Sets I & II

Ackerman Archives

Recording Info:
Ray Ackerman's Master Audience Cassettes; AKG 460 w/ck63 caps > AKG B18 phantom power unit > Sony D5

Transfer Info:
Master Cassettes (Sony TCK71) > Grace Design Lunatec V3 (Oade modified) > M-Audio MicroTrack II (wav 24-bit/96k)

Edited & Mastered by Joe Noel
WAV > Audacity > FLAC 24/96
April 18, 2018

This file set is 16 bit @ 44.1

Patch info:
- shnid 120487 (Schoeps) supplies
- s1t05; 07:31 - end
- s1t06; start - 02:14
- s2t06; 11:52 - end
- s2t07; start - 00:49

Notes:
- Thanks to Ray for sharing his masters
- Thanks to Charlie for coordinating
- Grateful for the unknown taper's efforts that supplies the patch

- Set I -
s1t01 - Let The Good Times Roll
s1t02 - Shakedown Street
s1t03 - Walkin' Blues
s1t04 - To Lay Me Down
s1t05 - It's All Over Now
s1t06 - tuning
s1t07 - Loser
s1t08 - Let It Grow

- Set II -
s2t01 - Bertha ->
s2t02 - Greatest Story Ever Told ->
s2t03 - Crazy Fingers ->
s2t04 - Truckin' ->
s2t05 - Drums ->
s2t06 - Space ->
s2t07 - The Wheel ->
s2t08 - I Need A Miracle ->
s2t09 - Dear Mr. Fantasy ->
s2t10 - Hey Jude coda ->
s2t11 - Turn On Your Love Light
	encore
s2t12 - Black Muddy River

Tagging notes:
Show information is embedded within the header of each flac file. 
It will display on any player capable of directly playing flac files. 
If converted to wav during processing, all tags will be stripped, 
however audio data will remain unaffected. If you must 
transcode to a lossy format, do so directly Flac > Lossy.
Use ffp or st5 to validate audio integrity.
Md5 values will change if tagging is altered.
[J.Noel 18 April 2018]

    length     expanded size    cdr  WAVE problems  fmt   ratio  filename
     4:50.49       51271292 B   ---   --   ---xx   flac  0.6229  gd88-09-08.s1t01.flac
    11:36.32      122849708 B   ---   --   ---xx   flac  0.5979  gd88-09-08.s1t02.flac
     7:51.05       83096204 B   ---   --   ---xx   flac  0.6033  gd88-09-08.s1t03.flac
     7:53.14       83470172 B   ---   --   ---xx   flac  0.5662  gd88-09-08.s1t04.flac
     7:28.59       79166012 B   ---   --   ---xx   flac  0.6424  gd88-09-08.s1t05.flac
     2:19.31       24592556 B   ---   --   ---xx   flac  0.5962  gd88-09-08.s1t06.flac
     7:26.70       78839084 B   ---   --   ---xx   flac  0.6127  gd88-09-08.s1t07.flac
    13:48.36      146143916 B   ---   --   ---xx   flac  0.6142  gd88-09-08.s1t08.flac
     7:10.00       75852044 B   ---   --   ---xx   flac  0.6398  gd89-09-08.s2t01.flac
     3:55.03       41461100 B   ---   --   ---xx   flac  0.6503  gd89-09-08.s2t02.flac
     8:18.08       87866060 B   ---   --   ---xx   flac  0.5750  gd89-09-08.s2t03.flac
     7:54.42       83712428 B   ---   --   ---xx   flac  0.6035  gd89-09-08.s2t04.flac
    12:01.49      127299692 B   ---   --   ---xx   flac  0.5317  gd89-09-08.s2t05.flac
     5:29.04       58045052 B   ---   --   ---xx   flac  0.4811  gd89-09-08.s2t06.flac
     3:56.29       41698652 B   ---   --   ---xx   flac  0.6133  gd89-09-08.s2t07.flac
     3:51.34       40828412 B   ---   --   ---xx   flac  0.6419  gd89-09-08.s2t08.flac
     5:51.34       61996412 B   ---   --   ---xx   flac  0.6234  gd89-09-08.s2t09.flac
     1:41.17       17856428 B   ---   --   ---xx   flac  0.7104  gd89-09-08.s2t10.flac
     6:26.22       68142188 B   ---   --   ---xx   flac  0.6083  gd89-09-08.s2t11.flac
     6:54.05       73041404 B   ---   --   ---xx   flac  0.5751  gd89-09-08.s2t12.flac
   136:44.18     1447228816 B                            0.5977  (20 files)



More information about the bittorrent mailing list