[bittorrent] Andrea von Kampen Solo Acoustic Hill Country BBQ Washington DC 3/14/2019 (Schoeps MK4V'S FOB)

Automated Mailer noreply-bt.e at etree.org
Fri Mar 15 05:04:09 UTC 2019


Band:           Other
Torrent Name:   Andrea von Kampen Solo Acoustic Hill Country BBQ Washington DC 3/14/2019 (Schoeps MK4V'S FOB)
Uploaded by:    zmanatl
DB Link:        
Details:        http://bt.etree.org/details.php?id=604700

Contact the seeder at http://db.etree.org/zmanatl

If the link to this show does not work, it was probably removed for
being non-trade-friendly.

Description / text file:
-------------------------
Andrea von Kampen Solo Acoustic
Hill Country BBQ
Washinton DC
3/14/2019 

Source: Schoeps MK4V'S>CMC6>Lunatec V2>Sound Devices 722 (24/44.1)
FOB/DFC/KFC/ZFC/AARP 11' From Stage, 6 1/2' High
DSP: Sound Devices 722>Sound Forge 10.0>CD Wave>flac(16)
ID3 Tagged In Foobar 2000
Recorded By: Z-Man
Seeded By: Z-Man 

Disc I 

01 Desdimona
02 Try
03 Portland
04 Julia
05 Fair Thee Well My Honey
06 Two Stupid Kids
07 Let Me Down Easy
08 Teton
09 If You See Her Say Hello
10 ?
11 Dock Of The Bay
12 ?
13 ?

andrea2019-03-14d01t01.flac:7b8e3a01576e8ffdaa3ac19e671d6cca
andrea2019-03-14d01t02.flac:9f7d07d73fff331e0df0173371bc1262
andrea2019-03-14d01t03.flac:15144313fbd33618d3f34d0a13e56185
andrea2019-03-14d01t04.flac:828e789de23fabed6074c2f5411ba38f
andrea2019-03-14d01t05.flac:beb289d2b36609aecaaa78d43c724e35
andrea2019-03-14d01t06.flac:09286f3b76ee4b13199eb2c52baa03f1
andrea2019-03-14d01t07.flac:ed548478fa5e20720e24a3ec404feb1e
andrea2019-03-14d01t08.flac:ea845e8497436a78200e4e9f492c1853
andrea2019-03-14d01t09.flac:b8819f513a6afa8c1d9e4f84b3a031c8
andrea2019-03-14d01t10.flac:91c8438573d48dc56d3ea277e455f19c
andrea2019-03-14d01t11.flac:1978df72309c92e4844e68f26b584cd6
andrea2019-03-14d01t12.flac:066a464ca8c9657882017aad0761301a
andrea2019-03-14d01t13.flac:cc6a0adb1ccff87af4c49302afb0bd72

length     expanded size    cdr  WAVE problems  fmt   ratio  filename
     3:38.32       38530508 B   ---   --   ---xx   flac  0.4541  andrea2019-03-14d01t01.flac
     5:23.59       57116012 B   ---   --   ---xx   flac  0.4097  andrea2019-03-14d01t02.flac
     3:41.42       39083228 B   ---   --   ---xx   flac  0.4421  andrea2019-03-14d01t03.flac
     2:52.09       30362012 B   ---   --   ---xx   flac  0.4367  andrea2019-03-14d01t04.flac
     4:24.61       46713116 B   ---   --   ---xx   flac  0.4368  andrea2019-03-14d01t05.flac
     4:06.01       43396796 B   ---   --   ---xx   flac  0.4525  andrea2019-03-14d01t06.flac
     5:16.29       55810652 B   ---   --   ---xx   flac  0.4261  andrea2019-03-14d01t07.flac
     4:12.13       44483420 B   ---   --   ---xx   flac  0.4235  andrea2019-03-14d01t08.flac
     4:29.15       47486924 B   ---   --   ---xx   flac  0.4261  andrea2019-03-14d01t09.flac
     2:33.20       27036284 B   ---   --   ---xx   flac  0.4585  andrea2019-03-14d01t10.flac
     3:38.15       38490524 B   ---   --   ---xx   flac  0.4679  andrea2019-03-14d01t11.flac
     2:34.47       27276188 B   ---   --   ---xx   flac  0.4461  andrea2019-03-14d01t12.flac
     2:45.16       29143676 B   ---   --   ---xx   flac  0.3920  andrea2019-03-14d01t13.flac
    49:35.59      524929340 B                            0.4350  (13 files)




More information about the bittorrent mailing list