[bittorrent] gd1988-07-03.145667.fob.akg460.ackerman.miller.noel.t-flac16

Automated Mailer noreply-bt.e at etree.org
Fri Mar 15 03:47:45 UTC 2019


Band:           Grateful Dead
Torrent Name:   gd1988-07-03.145667.fob.akg460.ackerman.miller.noel.t-flac16
Uploaded by:    norm
DB Link:        
Details:        http://bt.etree.org/details.php?id=604699

Contact the seeder at http://db.etree.org/norm

If the link to this show does not work, it was probably removed for
being non-trade-friendly.

Description / text file:
-------------------------
141758 24 > 16 - same HASH served @ Lossless Legs

Grateful Dead 
 
July 3, 1988
Oxford Plains Speedway 
Oxford, ME   
Sets I & II

Ackerman Archives

Recording Info:
Ray Ackerman's Master Audience Cassettes; AKG 460 w/ck63 caps > AKG B18 phantom power unit > Sony D5

Transfer Info:
Master Cassettes (Sony TCK71) > Grace Design Lunatec V3 (Oade modified) > M-Audio MicroTrack II (wav 24-bit/96k)

Edited & Mastered by Joe Noel
WAV > Audacity > FLAC 24/96
April 22, 2018

This file set is 16 bit @ 44.1

Patch info:
- shnid 140675 (Neumann U89) supplies
- s1t03; 08:37 - end
- s1t04; start - 00:08, & 05:55 - end
- s1t06; 05:57 - 07:11
- s2t06; 00:01 - 00:11
- s2t07; start - 00:23
- s2t08; 00:26 - 00:43

Notes:
- Little Feat opened
- Officially released as part of "30 Trips Around The Sun"
- Ray picked a good weekend to have the mics dialed in.

- Set I -
s1t01 - announcements - tuning
s1t02 - Hell in a Bucket ->
s1t03 - Sugaree
s1t04 - Walkin' Blues
s1t05 - Tennessee Jed
s1t06 - Queen Jane Approximately
s1t07 - Bird Song

- Set II -
s2t01 - Touch of Grey
s2t02 - Hey Pocky Way ->
s2t03 - Looks Like Rain ->
s2t04 - Estimated Prophet ->
s2t05 - Eyes of the World ->
s2t06 - I Will Take You Home
s2t07 - Drums ->
s2t08 - Space ->
s2t09 - Goin' Down The Road Feeling Bad ->
s2t10 - I Need A Miracle ->
s2t11 - Dear Mr. Fantasy ->
s2t12 - Hey Jude
      - encore
s2t13 - Not Fade Away

Tagging notes:
Show information is embedded within the header of each flac file. 
It will display on any player capable of directly playing flac files. 
If converted to wav during processing, all tags will be stripped, 
however audio data will remain unaffected. If you must 
transcode to a lossy format, do so directly Flac > Lossy.
Use ffp or st5 to validate audio integrity.
Md5 values will change if tagging is altered.
[J.Noel 22 April 2018]

    length     expanded size    cdr  WAVE problems  fmt   ratio  filename

     2:07.32       22478108 B   ---   --   ---xx   flac  0.5380  gd88-07-03.s1t01.flac
     6:05.71       64553036 B   ---   --   ---xx   flac  0.6310  gd88-07-03.s1t02.flac
     9:27.60      100159964 B   ---   --   ---xx   flac  0.5793  gd88-07-03.s1t03.flac
     7:52.09       83282012 B   ---   --   ---xx   flac  0.5600  gd88-07-03.s1t04.flac
     8:25.01       89084396 B   ---   --   ---xx   flac  0.6112  gd88-07-03.s1t05.flac
     7:19.37       77526668 B   ---   --   ---xx   flac  0.5739  gd88-07-03.s1t06.flac
    11:40.74      123654092 B   ---   --   ---xx   flac  0.5660  gd88-07-03.s1t07.flac
     7:08.16       75536876 B   ---   --   ---xx   flac  0.6016  gd88-07-03.s2t01.flac
     6:07.56       64870556 B   ---   --   ---xx   flac  0.6137  gd88-07-03.s2t02.flac
     9:56.38      105223820 B   ---   --   ---xx   flac  0.5635  gd88-07-03.s2t03.flac
    11:36.74      122948492 B   ---   --   ---xx   flac  0.5677  gd88-07-03.s2t04.flac
     8:13.20       87012284 B   ---   --   ---xx   flac  0.5799  gd88-07-03.s2t05.flac
     3:51.31       40821356 B   ---   --   ---xx   flac  0.4809  gd88-07-03.s2t06.flac
     9:57.37      105397868 B   ---   --   ---xx   flac  0.4941  gd88-07-03.s2t07.flac
     7:48.28       82621100 B   ---   --   ---xx   flac  0.4885  gd88-07-03.s2t08.flac
     6:54.65       73182524 B   ---   --   ---xx   flac  0.5563  gd88-07-03.s2t09.flac
     3:37.00       38278844 B   ---   --   ---xx   flac  0.5804  gd88-07-03.s2t10.flac
     5:33.33       58818860 B   ---   --   ---xx   flac  0.5647  gd88-07-03.s2t11.flac
     3:17.59       34889612 B   ---   --   ---xx   flac  0.5584  gd88-07-03.s2t12.flac
     7:27.52       78973148 B   ---   --   ---xx   flac  0.5318  gd88-07-03.s2t13.flac
   144:29.43     1529313616 B                            0.5629  (20 files)



More information about the bittorrent mailing list