[bittorrent] gd1988-07-02.145666.fob.akg460.ackerman.miller.noel.t-flac16

Automated Mailer noreply-bt.e at etree.org
Fri Mar 15 02:17:16 UTC 2019


Band:           Grateful Dead
Torrent Name:   gd1988-07-02.145666.fob.akg460.ackerman.miller.noel.t-flac16
Uploaded by:    norm
DB Link:        
Details:        http://bt.etree.org/details.php?id=604698

Contact the seeder at http://db.etree.org/norm

If the link to this show does not work, it was probably removed for
being non-trade-friendly.

Description / text file:
-------------------------
141757 24 > 16 - same HASH served @ Lossless Legs

Grateful Dead

July 02, 1988 
Oxford Plains Speedway, 
Oxford, ME
Sets I & II

Ackerman Archives

Recording Info:
Ray Ackerman's Master Audience Cassettes; AKG 460 w/ck63 caps > AKG B18 phantom power unit > Sony D5

Transfer Info:
Master Cassettes (Sony TCK71) > Grace Design Lunatec V3 (Oade modified) > M-Audio MicroTrack II (wav 24-bit/96k)

Edited & Mastered by Joe Noel
WAV > Audacity > FLAC 24/96
April 21, 2018

This file set is 16 bit @ 44.1

Patch info:
- shnid 140674 (Neumann U89) supplies
- s1t06; start - 01:30 (banter)
- s2t06; 00:03 - 00:17
- s2t11; 08:54 - 09:51 (crowd)

Notes:
- Thanks to Ray for sharing his archive
- Thanks to Charlie for bringing it all home 
- Grateful for the Silberman FOB that supplies the patch 
- tape pauses & flip (s1) cross faded
- there was not enough room for a proper crossfade before the encore, so a touch of crowd was added

- Set I -
s1t01 - Iko Iko
s1t02 - Jack Straw
s1t03 - West L.A. Fadeaway
s1t04 - 'lets hear more from Phil'
s1t05 - Stuck Inside of Mobile with the Memphis Blues Again
s1t06 - 'let Mickey sing'
s1t07 - Row Jimmy
s1t08 - Blow Away ->
s1t09 - Victim or the Crime ->
s1t10 - Foolish Heart

- Set II -
s2t01 - Crazy Fingers ->
s2t02 - Playing in the Band ->
s2t03 - Uncle John's Band ->
s2t04 - Terrapin Station ->
s2t05 - Drums ->
s2t06 - Space ->
s2t07 - The Wheel ->
s2t08 - Gimme Some Lovin' ->
s2t09 - All Along The Watchtower ->
s2t10 - Morning Dew ->
s2t11 - Sugar Magnolia
      - encore
s2t12 - Quinn The Eskimo (The Mighty Quinn)

Tagging notes:
Show information is embedded within the header of each flac file. 
It will display on any player capable of directly playing flac files. 
If converted to wav during processing, all tags will be stripped, 
however audio data will remain unaffected. If you must 
transcode to a lossy format, do so directly Flac > Lossy.
Use ffp or st5 to validate audio integrity.
Md5 values will change if tagging is altered.
[J.Noel 21 April 2018]

    length     expanded size    cdr  WAVE problems  fmt   ratio  filename
     6:30.35       68878364 B   ---   --   ---xx   flac  0.5697  gd88-07-02.s1t01.flac
     5:55.58       62758460 B   ---   --   ---xx   flac  0.5830  gd88-07-02.s1t02.flac
     7:17.66       77242076 B   ---   --   ---xx   flac  0.5547  gd88-07-02.s1t03.flac
     1:03.40       11207324 B   ---   --   ---xx   flac  0.5536  gd88-07-02.s1t04.flac
     8:00.25       84730844 B   ---   --   ---xx   flac  0.5730  gd88-07-02.s1t05.flac
     2:05.74       22224092 B   ---   --   ---xx   flac  0.4443  gd88-07-02.s1t06.flac
    10:08.71      107418236 B   ---   --   ---xx   flac  0.5431  gd88-07-02.s1t07.flac
     7:12.68       76364780 B   ---   --   ---xx   flac  0.5935  gd88-07-02.s1t08.flac
     5:43.55       60634604 B   ---   --   ---xx   flac  0.5857  gd88-07-02.s1t09.flac
     8:57.02       94731548 B   ---   --   ---xx   flac  0.5770  gd88-07-02.s1t10.flac
     9:39.32      102210908 B   ---   --   ---xx   flac  0.5541  gd88-07-02.s2t01.flac
     9:50.34      104156012 B   ---   --   ---xx   flac  0.5651  gd88-07-02.s2t02.flac
     8:14.72       87310988 B   ---   --   ---xx   flac  0.5774  gd88-07-02.s2t03.flac
    11:56.59      126441212 B   ---   --   ---xx   flac  0.5749  gd88-07-02.s2t04.flac
     7:07.02       75327548 B   ---   --   ---xx   flac  0.4954  gd88-07-02.s2t05.flac
     9:17.40       98348924 B   ---   --   ---xx   flac  0.4970  gd88-07-02.s2t06.flac
     4:12.34       44532812 B   ---   --   ---xx   flac  0.5724  gd88-07-02.s2t07.flac
     5:07.14       54187772 B   ---   --   ---xx   flac  0.6057  gd88-07-02.s2t08.flac
     5:44.30       60752204 B   ---   --   ---xx   flac  0.6056  gd88-07-02.s2t09.flac
    11:12.23      118594940 B   ---   --   ---xx   flac  0.5353  gd88-07-02.s2t10.flac
     9:54.31      104854556 B   ---   --   ---xx   flac  0.5914  gd88-07-02.s2t11.flac
     4:51.37       51419468 B   ---   --   ---xx   flac  0.5863  gd88-07-02.s2t12.flac
   160:05.02     1694327672 B                            0.5623  (22 files)



More information about the bittorrent mailing list