[bittorrent] gd1990-11-01.145544.UltraMatrix.sbd.cm.millier.flac24

Automated Mailer noreply-bt.e at etree.org
Fri Mar 15 00:35:42 UTC 2019


Band:           Grateful Dead
Torrent Name:   gd1990-11-01.145544.UltraMatrix.sbd.cm.millier.flac24
Uploaded by:    norm
DB Link:        
Details:        http://bt.etree.org/details.php?id=604697

Contact the seeder at http://db.etree.org/norm

If the link to this show does not work, it was probably removed for
being non-trade-friendly.

Description / text file:
-------------------------
Grateful Dead - November 1, 1990
Wembley Arena - London, England

Recording Info:
Ultra Matrix SBD > Cassette Master (TDK SA-X100)

Transfer Info:
Cassette Master (Nakamichi CR-7A) > Tascam DA-3000 (DSF 1-bit/5.6 MHz) >
KORG AudioGate 4 > Adobe Audition CC 2015 > Samplitude Pro X4 Suite > FLAC/24
(1 DVD FLAC)

Patch Source:
(FOB) B&K 4011 (ortf) > Dat (shnid=138689) supplies:
Space (3:28 - 4:05)

All Transfers and Mastering By Charlie Miller
charliemiller87 at earthlink.net
February 5, 2019

Notes:
-- Thanks to Mark Teitlebaum, John Ammons and Joe Noel for the patch source
-- Thanks to Scott Clugston for the pitch correction settings

Set 1:
01 - Tuning
02 - Hell In A Bucket
03 - Friend Of The Devil
04 - Walkin' Blues
05 - Cold Rain And Snow
06 - Mama Tried >
07 - Maggie's Farm
08 - Cassidy
09 - Stander On The Mountain

Set 2:
10 - Tuning
11 - Victim Or The Crime >
12 - Touch Of Grey
13 - Playing In The Band >
14 - Dark Star >
15 - Drums >
16 - Space >
17 - Dark Star >
18 - Playing In The Band >
19 - Standing On The Moon tease >
20 - Wharf Rat >
21 - Throwing Stones >
22 - Not Fade Away

Encore:
23 - Tuning
24 - U.S. Blues


SHNTOOL OUTPUT:
    length     expanded size    cdr  WAVE problems  fmt   ratio  filename
     0:27.849      16040810 B   cxx   --   ---xx   flac  0.6542  01 Tuning.flac
     7:20.953     253989164 B   cxx   --   ---xx   flac  0.6991  02 Hell In A Bucket.flac
     8:55.619     308516636 B   cxx   --   ---xx   flac  0.6948  03 Friend Of The Devil.flac
     6:43.370     232340948 B   cxx   --   ---xx   flac  0.6863  04 Walkin' Blues.flac
     8:24.748     290734994 B   cxx   --   ---xx   flac  0.6863  05 Cold Rain And Snow.flac
     2:36.749      90287270 B   cxx   --   ---xx   flac  0.6917  06 Mama Tried.flac
     7:50.246     270862010 B   cxx   --   ---xx   flac  0.6812  07 Maggie's Farm.flac
     7:17.553     252030758 B   cxx   --   ---xx   flac  0.6854  08 Cassidy.flac
     7:16.456     251398454 B   cxx   --   ---xx   flac  0.6807  09 Stander On The Mountain.flac
     0:47.332      27263180 B   cxx   --   ---xx   flac  0.6427  10 Tuning.flac
     8:26.964     292011044 B   cxx   --   ---xx   flac  0.6853  11 Victim Or The Crime.flac
     8:31.706     294742892 B   cxx   --   ---xx   flac  0.6916  12 Touch Of Grey.flac
     8:20.184     288105866 B   cxx   --   ---xx   flac  0.6978  13 Playing In The Band.flac
    10:10.316     351541856 B   cxx   --   ---xx   flac  0.6994  14 Dark Star.flac
    12:32.509     433445072 B   cxx   --   ---xx   flac  0.6485  15 Drums.flac
     5:29.046     189530258 B   cxx   --   ---xx   flac  0.6337  16 Space.flac
    11:00.175     380261126 B   cxx   --   ---xx   flac  0.6786  17 Dark Star.flac
     2:56.905     101897252 B   cxx   --   ---xx   flac  0.6736  18 Playing In The Band.flac
     0:44.448      25601882 B   cxx   --   ---xx   flac  0.6698  19 Standing On The Moon tease.flac
     8:08.242     281227520 B   cxx   --   ---xx   flac  0.6859  20 Wharf Rat.flac
     9:58.509     344741480 B   cxx   --   ---xx   flac  0.6800  21 Throwing Stones.flac
     7:37.229     263363810 B   cxx   --   ---xx   flac  0.6649  22 Not Fade Away.flac
     0:31.764      18296204 B   cxx   --   ---xx   flac  0.6546  23 Tuning.flac
     6:07.238     211529276 B   cxx   --   ---xx   flac  0.6912  24 US Blues.flac
   158:16.109    5469759762 B                            0.6813  (24 files)



More information about the bittorrent mailing list