[bittorrent] gd1990-11-01.145663.UltraMatrix.sbd.cm.millier.flac16

Automated Mailer noreply-bt.e at etree.org
Thu Mar 14 22:57:01 UTC 2019


Band:           Grateful Dead
Torrent Name:   gd1990-11-01.145663.UltraMatrix.sbd.cm.millier.flac16
Uploaded by:    norm
DB Link:        
Details:        http://bt.etree.org/details.php?id=604696

Contact the seeder at http://db.etree.org/norm

If the link to this show does not work, it was probably removed for
being non-trade-friendly.

Description / text file:
-------------------------
Grateful Dead - November 1, 1990
Wembley Arena - London, England

Recording Info:
Ultra Matrix SBD > Cassette Master (TDK SA-X100)

Transfer Info:
Cassette Master (Nakamichi CR-7A) > Tascam DA-3000 (DSF 1-bit/5.6 MHz) >
KORG AudioGate 4 > Adobe Audition CC 2015 > Samplitude Pro X4 Suite > FLAC/24
(1 DVD FLAC)

Patch Source:
(FOB) B&K 4011 (ortf) > Dat (shnid=138689) supplies:
Space (3:28 - 4:05)

All Transfers and Mastering By Charlie Miller
charliemiller87 at earthlink.net
February 5, 2019

Notes:
-- Thanks to Mark Teitlebaum, John Ammons and Joe Noel for the patch source
-- Thanks to Scott Clugston for the pitch correction settings
-- This file set is 16 bit @ 44.1

Set 1:
01 - Tuning
02 - Hell In A Bucket
03 - Friend Of The Devil
04 - Walkin' Blues
05 - Cold Rain And Snow
06 - Mama Tried >
07 - Maggie's Farm
08 - Cassidy
09 - Stander On The Mountain

Set 2:
10 - Tuning
11 - Victim Or The Crime >
12 - Touch Of Grey
13 - Playing In The Band >
14 - Dark Star >
15 - Drums >
16 - Space >
17 - Dark Star >
18 - Playing In The Band >
19 - Standing On The Moon tease >
20 - Wharf Rat >
21 - Throwing Stones >
22 - Not Fade Away

Encore:
23 - Tuning
24 - U.S. Blues


SHNTOOL OUTPUT:
    length     expanded size    cdr  WAVE problems  fmt   ratio  filename
     0:27.63        4911020 B   ---   --   ---xx   flac  0.4872  01 Tuning.flac
     7:20.72       77785388 B   ---   --   ---xx   flac  0.6233  02 Hell In A Bucket.flac
     8:55.46       94482236 B   ---   --   ---xx   flac  0.5953  03 Friend Of The Devil.flac
     6:43.28       71155100 B   ---   --   ---xx   flac  0.5911  04 Walkin' Blues.flac
     8:24.56       89037356 B   ---   --   ---xx   flac  0.5956  05 Cold Rain And Snow.flac
     2:36.56       27650156 B   ---   --   ---xx   flac  0.6255  06 Mama Tried.flac
     7:50.19       82952732 B   ---   --   ---xx   flac  0.5938  07 Maggie's Farm.flac
     7:17.41       77183276 B   ---   --   ---xx   flac  0.6187  08 Cassidy.flac
     7:16.34       76990412 B   ---   --   ---xx   flac  0.6133  09 Stander On The Mountain.flac
     0:47.25        8349644 B   ---   --   ---xx   flac  0.4822  10 Tuning.flac
     8:26.72       89427788 B   ---   --   ---xx   flac  0.6126  11 Victim Or The Crime.flac
     8:31.53       90265100 B   ---   --   ---xx   flac  0.6203  12 Touch Of Grey.flac
     8:20.14       88232972 B   ---   --   ---xx   flac  0.6229  13 Playing In The Band.flac
    10:10.24      107660492 B   ---   --   ---xx   flac  0.6134  14 Dark Star.flac
    12:32.38      132742220 B   ---   --   ---xx   flac  0.5139  15 Drums.flac
     5:29.03       58042700 B   ---   --   ---xx   flac  0.4789  16 Space.flac
    11:00.14      116456972 B   ---   --   ---xx   flac  0.5687  17 Dark Star.flac
     2:56.67       31204028 B   ---   --   ---xx   flac  0.5650  18 Playing In The Band.flac
     0:44.34        7841612 B   ---   --   ---xx   flac  0.5437  19 Standing On The Moon tease.flac
     8:08.18       86125580 B   ---   --   ---xx   flac  0.5960  20 Wharf Rat.flac
     9:58.38      105576620 B   ---   --   ---xx   flac  0.6080  21 Throwing Stones.flac
     7:37.17       80654828 B   ---   --   ---xx   flac  0.5619  22 Not Fade Away.flac
     0:31.58        5604860 B   ---   --   ---xx   flac  0.5069  23 Tuning.flac
     6:07.19       64783532 B   ---   --   ---xx   flac  0.6255  24 US Blues.flac
   158:16.09     1675116624 B                            0.5897  (24 files)



More information about the bittorrent mailing list