[bittorrent] gd1981-12-02.145662.s1.sbd.cm.miller.flac16

Automated Mailer noreply-bt.e at etree.org
Thu Mar 14 21:28:06 UTC 2019


Band:           Grateful Dead
Torrent Name:   gd1981-12-02.145662.s1.sbd.cm.miller.flac16
Uploaded by:    norm
DB Link:        
Details:        http://bt.etree.org/details.php?id=604695

Contact the seeder at http://db.etree.org/norm

If the link to this show does not work, it was probably removed for
being non-trade-friendly.

Description / text file:
-------------------------
Grateful Dead - December 2, 1981
Assembly Hall (University of Illinois) - Champaign-Urbana, IL

Recording Info:
SBD > Cassette Master (Sony TC-D5M/Maxell UDXL-II-C90)

Transfer Info:
Cassette Master (Nakamichi CR-7A) > Tascam DA-3000 (DSF 1-bit/5.6 MHz) >
KORG AudioGate 4 > Adobe Audition CC2015 > Samplitude Pro X3 Suite > FLAC/24
(1 DVD FLAC)

All Transfers and Mastering by Charlie Miller
charliemiller87 at earthlink.net
April 23, 2018

This file set is 16 bit @ 44.1

Patch Info:
SBD > Cassette Master > Reel > Dat (shnid=108842) supplies:
Never Trsut A Woman (0:00 - 5:31)

Set 1:
01 - Bertha >
02 - Greatest Story Ever Told
03 - Peggy-O
04 - Mama Tried >
05 - Mexicali Blues
06 - Brown-Eyed Women
07 - Passenger
08 - Never Trust A Woman
09 - Cumberland Blues >
10 - Looks Like Rain
11 - China Cat Sunflower >
12 - I Know You Rider


SHNTOOL OUTPUT:
    length     expanded size    cdr  WAVE problems  fmt   ratio  filename
     7:16.46       77018636 B   ---   --   ---xx   flac  0.6364  01 Bertha.flac
     5:15.28       55631900 B   ---   --   ---xx   flac  0.6121  02 Greatest Story Ever Told.flac
     8:33.37       90580268 B   ---   --   ---xx   flac  0.5863  03 Peggy-O.flac
     2:38.12       27899468 B   ---   --   ---xx   flac  0.6291  04 Mama Tried.flac
     5:17.12       55947068 B   ---   --   ---xx   flac  0.6231  05 Mexicali Blues.flac
     6:14.37       66060668 B   ---   --   ---xx   flac  0.6017  06 Brown Eyed Women.flac
     5:13.02       55217948 B   ---   --   ---xx   flac  0.6451  07 Passenger.flac
     7:13.45       76487084 B   ---   --   ---xx   flac  0.6236  08 Never Trust A Women.flac
     5:43.03       60512300 B   ---   --   ---xx   flac  0.6351  09 Cumberland Blues.flac
     9:32.46      101009036 B   ---   --   ---xx   flac  0.5749  10 Looks Like Rain.flac
     6:10.08       65286860 B   ---   --   ---xx   flac  0.6175  11 China Cat Sunflower.flac
     5:51.07       61932908 B   ---   --   ---xx   flac  0.6291  12 I Know You Rider.flac
    74:58.58      793584144 B                            0.6142  (12 files)



More information about the bittorrent mailing list