[bittorrent] gd1981-12-02.145543.s1.sbd.cm.miller.flac24

Automated Mailer noreply-bt.e at etree.org
Thu Mar 14 21:00:27 UTC 2019


Band:           Grateful Dead
Torrent Name:   gd1981-12-02.145543.s1.sbd.cm.miller.flac24
Uploaded by:    norm
DB Link:        
Details:        http://bt.etree.org/details.php?id=604694

Contact the seeder at http://db.etree.org/norm

If the link to this show does not work, it was probably removed for
being non-trade-friendly.

Description / text file:
-------------------------
Grateful Dead - December 2, 1981
Assembly Hall (University of Illinois) - Champaign-Urbana, IL

Recording Info:
SBD > Cassette Master (Sony TC-D5M/Maxell UDXL-II-C90)

Transfer Info:
Cassette Master (Nakamichi CR-7A) > Tascam DA-3000 (DSF 1-bit/5.6 MHz) >
KORG AudioGate 4 > Adobe Audition CC2015 > Samplitude Pro X3 Suite > FLAC/24
(1 DVD FLAC)

All Transfers and Mastering by Charlie Miller
charliemiller87 at earthlink.net
April 23, 2018

Patch Info:
SBD > Cassette Master > Reel > Dat (shnid=108842) supplies:
Never Trsut A Woman (0:00 - 5:31)

Set 1:
01 - Bertha >
02 - Greatest Story Ever Told
03 - Peggy-O
04 - Mama Tried >
05 - Mexicali Blues
06 - Brown-Eyed Women
07 - Passenger
08 - Never Trust A Woman
09 - Cumberland Blues >
10 - Looks Like Rain
11 - China Cat Sunflower >
12 - I Know You Rider


SHNTOOL OUTPUT:
    length     expanded size    cdr  WAVE problems  fmt   ratio  filename
     7:16.621     251493806 B   cxx   --   ---xx   flac  0.7062  01 Bertha.flac
     5:15.370     181653164 B   cxx   --   ---xx   flac  0.6968  02 Greatest Story Ever Told.flac
     8:33.500     295775936 B   cxx   --   ---xx   flac  0.6902  03 Peggy-O.flac
     2:38.156      91097750 B   cxx   --   ---xx   flac  0.7024  04 Mama Tried.flac
     5:17.165     182686850 B   cxx   --   ---xx   flac  0.7008  05 Mexicali Blues.flac
     6:14.495     215708876 B   cxx   --   ---xx   flac  0.6912  06 Brown Eyed Women.flac
     5:13.020     180299636 B   cxx   --   ---xx   flac  0.6926  07 Passenger.flac
     7:13.599     249753230 B   cxx   --   ---xx   flac  0.6272  08 Never Trust A Women.flac
     5:43.047     197595260 B   cxx   --   ---xx   flac  0.7007  09 Cumberland Blues.flac
     9:32.611     329824148 B   cxx   --   ---xx   flac  0.6785  10 Looks Like Rain.flac
     6:10.105     213180464 B   cxx   --   ---xx   flac  0.6950  11 China Cat Sunflower.flac
     5:51.079     202221278 B   cxx   --   ---xx   flac  0.6995  12 I Know You Rider.flac
    74:58.767    2591290398 B                            0.6880  (12 files)



More information about the bittorrent mailing list