[bittorrent] gd1988-06-30.145661.fob.akg460.ackerman.noel.t-flac16

Automated Mailer noreply-bt.e at etree.org
Thu Mar 14 19:21:27 UTC 2019


Band:           Grateful Dead
Torrent Name:   gd1988-06-30.145661.fob.akg460.ackerman.noel.t-flac16
Uploaded by:    norm
DB Link:        
Details:        http://bt.etree.org/details.php?id=604693

Contact the seeder at http://db.etree.org/norm

If the link to this show does not work, it was probably removed for
being non-trade-friendly.

Description / text file:
-------------------------
Grateful Dead

June 30, 1988
Silver Stadium, 
Rochester, NY
Sets I & II

Ackerman Archives

Ray Ackerman's Master Audience Cassette Recording & Transfer;
AKG 460 w/ck63 caps > AKG B18 phantom power unit > Sony D5 > Master Cassette.  Located, front left side of sound board.

Transfer: Master Cassettes > Kyocera D811 > Grace V3 > M-Audio MicroTrack II > WAV 96Hz/24bit.

Edited & Mastered w/ Audacity by Joe Noel
December 26, 2018

This file set is 16 bit @ 44.1

Patch info;
- shnid 142404 (Schoeps) supplies:
- s2t09; 02:03 - 04:15
- s2t12; 09:39 - 09:58

Notes:
- Thanks Ray!
- Upgrade (transfer) to shnid 141704
- Pauses & tape flips were cross faded in set one.
- Thanks to John Kemble & Don Crandall, et al. for the patch source.
- One & only Green Onions
- Fare Thee Well to the Image City.

- Set I -
s1t01 - tuning
s1t02 - Box of Rain ->
s1t03 - Cold Rain and Snow
s1t04 - New Minglewood Blues
s1t05 - Ramble on Rose
s1t06 - Me and My Uncle ->
s1t07 - Mexicali Blues
s1t08 - Far From Me
s1t09 - Queen Jane Approximately ->
s1t10 - Don't Ease Me In

- Set II -
s2t01 - Green Onions ->
s2t02 - China Cat Sunflower ->
s2t03 - I Know You Rider ->
s2t04 - Samson and Delilah
s2t05 - Believe It or Not
s2t06 - Truckin ->
s2t07 - He's Gone ->
s2t08 - Drums ->
s2t09 - Space ->
s2t10 - The Other One ->
s2t11 - Wharf Rat ->
s2t12 - Throwing Stones ->
s2t13 - Turn On Your Love Light
	encore
s2t14 - Brokedown Palace

Tagging notes:
Show information is embedded within the header of each flac file. 
It will display on any player capable of directly playing flac files. 
If converted to wav during processing, all tags will be stripped, 
however audio data will remain unaffected. If you must 
transcode to a lossy format, do so directly Flac > Lossy.
Use ffp or st5 to validate audio integrity.
Md5 values will change if tagging is altered.
[J.Noel 06 January 2019]

    length     expanded size    cdr  WAVE problems  fmt   ratio  filename
     1:21.17       14328428 B   ---   --   ---xx   flac  0.4732  gd88-06-30.s1t01.flac
     4:57.72       52560188 B   ---   --   ---xx   flac  0.5342  gd88-06-30.s1t02.flac
     6:40.46       70668236 B   ---   --   ---xx   flac  0.5478  gd88-06-30.s1t03.flac
     8:11.14       86645372 B   ---   --   ---xx   flac  0.5717  gd88-06-30.s1t04.flac
     7:13.06       76395356 B   ---   --   ---xx   flac  0.5657  gd88-06-30.s1t05.flac
     3:12.66       34024076 B   ---   --   ---xx   flac  0.6076  gd88-06-30.s1t06.flac
     5:13.24       55269692 B   ---   --   ---xx   flac  0.6059  gd88-06-30.s1t07.flac
     4:52.51       51628796 B   ---   --   ---xx   flac  0.5802  gd88-06-30.s1t08.flac
     6:11.56       65576156 B   ---   --   ---xx   flac  0.5872  gd88-06-30.s1t09.flac
     3:37.14       38311772 B   ---   --   ---xx   flac  0.6139  gd88-06-30.s1t10.flac
     2:36.73       27690140 B   ---   --   ---xx   flac  0.5661  gd88-06-30.s2t01.flac
     6:22.72       67554188 B   ---   --   ---xx   flac  0.5905  gd88-06-30.s2t02.flac
     6:17.51       66622796 B   ---   --   ---xx   flac  0.6115  gd88-06-30.s2t03.flac
     7:51.63       83232620 B   ---   --   ---xx   flac  0.6157  gd88-06-30.s2t04.flac
     8:34.47       90780188 B   ---   --   ---xx   flac  0.5662  gd88-06-30.s2t05.flac
     7:02.07       74457308 B   ---   --   ---xx   flac  0.6086  gd88-06-30.s2t06.flac
    10:53.09      115210412 B   ---   --   ---xx   flac  0.5504  gd88-06-30.s2t07.flac
     7:36.29       80506652 B   ---   --   ---xx   flac  0.5127  gd88-06-30.s2t08.flac
     8:43.06       92271356 B   ---   --   ---xx   flac  0.5082  gd88-06-30.s2t09.flac
     8:32.50       90434444 B   ---   --   ---xx   flac  0.5749  gd88-06-30.s2t10.flac
     8:33.72       90662588 B   ---   --   ---xx   flac  0.5609  gd88-06-30.s2t11.flac
    10:14.55      108439004 B   ---   --   ---xx   flac  0.5758  gd88-06-30.s2t12.flac
     6:31.08       68991260 B   ---   --   ---xx   flac  0.5489  gd88-06-30.s2t13.flac
     5:30.49       58327292 B   ---   --   ---xx   flac  0.5008  gd88-06-30.s2t14.flac
   156:53.57     1660588320 B                            0.5665  (24 files)



More information about the bittorrent mailing list