[bittorrent] Little Feat 50th Anniversary Tour Atlanta Symphony Hall Atlanta, Georgia 3/12/2019 (Schoeps MK4V'S FOB)

Automated Mailer noreply-bt.e at etree.org
Wed Mar 13 04:33:46 UTC 2019


Band:           Little Feat
Torrent Name:   Little Feat 50th Anniversary Tour Atlanta Symphony Hall Atlanta, Georgia 3/12/2019 (Schoeps MK4V'S FOB)
Uploaded by:    zmanatl
DB Link:        
Details:        http://bt.etree.org/details.php?id=604683

Contact the seeder at http://db.etree.org/zmanatl

If the link to this show does not work, it was probably removed for
being non-trade-friendly.

Description / text file:
-------------------------
Little Feat 
50th Anniversary Tour
Atlanta Symphony Hall
Atlanta, Georgia
3/12/2019 

Source: Schoeps MK4V'S>CMC6>Lunatec V2>Sound Devices 722 (24/44.1)
FOB/DFC/KFC/ZFC/AARP Section, Row , Between Seats , 6 1/2' High
DSP: Sound Devices 722>Sound Forge 10.0>CD Wave>flac(16)
ID3 Tagged In Foobar 2000
Recorded By: Z-Man
Seeded By: Z-Man 

Disc I

01 Greeting
02 *Rocket In My Pocket
03 Hate To Lose Your Lovin’
04 *Spanish Moon >
05 *Skin It Back
06 Rooster Rag
07 #Trouble >
08 #Roll Um Easy 
09 *#Willin’ >
10 *#Don’t Bogart That Joint >
11 *#The Weight 
12 *Rock & Roll Doctor

Disc II

01 *Let It Roll
02 *Oh Atlanta
03 Fat Man In The Bathtub
04 *Dixie Chicken >
05 Keyboards And Drums >
06 *Dixie Chicken
Encore:
07 Thanks
08 *Feats Don’t Fail Me Now

* With Horn Section
# Acoustic

Paul Barrere - Electric Guitar, Acoustic Guitar, And Vocals
Sam Clayton - Percussion And Vocals
Kenny Gradney - Bass
Bill Payne - Keyboards And Vocals
Fred Tackett - Electric Guitar, Mandolin, Trumpet, And Vocals
Gabe Ford - Drums

little2019-03-12d01t01.flac:5f2116e92f47ff4a3b25169ba0f9fab3
little2019-03-12d01t02.flac:a67f30ab14fdcd34a795c009ba06c9ad
little2019-03-12d01t03.flac:e9e8d0fff18f51c4e054336b6ebf4694
little2019-03-12d01t04.flac:5497ee1e0c63393b1b6fe80fc98f00f9
little2019-03-12d01t05.flac:8a5bcf016f53e54351e1639a8a633546
little2019-03-12d01t06.flac:579258c1d011fb4cbdb2e3ce339bebf2
little2019-03-12d01t07.flac:3d2f19d91f36d5fcb0206878f26067f8
little2019-03-12d01t08.flac:6dac57eeff0eea819e45278c5e201f95
little2019-03-12d01t09.flac:18fa62b02eb6ee11742fbe8ba8f006d5
little2019-03-12d01t10.flac:5a8849e25310fd5baac0ab38b7c57fe6
little2019-03-12d01t11.flac:ef5524ff4805a400b28216741b4e1107
little2019-03-12d01t12.flac:7de26a567905b3ae0d83afc0658e5703
little2019-03-12d02t01.flac:ec130a3965ad16e40afca3db3d9b0e9b
little2019-03-12d02t02.flac:0927fc2cde8cd563f1066ec275165415
little2019-03-12d02t03.flac:fef059114313fd30c0f3a37357b1f814
little2019-03-12d02t04.flac:63e897d08c5c9d153f09065b33f60d3d
little2019-03-12d02t05.flac:d13011bc6dc2fda1a7d58fdf9d327aa2
little2019-03-12d02t06.flac:d693b8306d26e232639068c4c3a19f93
little2019-03-12d02t07.flac:86e253445d0746085b504ec40d941539
little2019-03-12d02t08.flac:26f6595ca47a05b9060b341ab26a7920

 length     expanded size    cdr  WAVE problems  fmt   ratio  filename
     0:20.18        3570380 B   ---   --   ---xx   flac  0.4239  little2019-03-12d01t01.flac
     7:18.52       77385548 B   ---   --   ---xx   flac  0.4983  little2019-03-12d01t02.flac
     5:03.45       53555084 B   ---   --   ---xx   flac  0.4943  little2019-03-12d01t03.flac
     7:55.03       83797100 B   ---   --   ---xx   flac  0.4926  little2019-03-12d01t04.flac
     7:49.47       82842188 B   ---   --   ---xx   flac  0.5175  little2019-03-12d01t05.flac
     7:44.02       81854348 B   ---   --   ---xx   flac  0.4804  little2019-03-12d01t06.flac
     2:43.73       28924940 B   ---   --   ---xx   flac  0.4364  little2019-03-12d01t07.flac
     3:39.12       38659868 B   ---   --   ---xx   flac  0.4038  little2019-03-12d01t08.flac
     8:13.34       87045212 B   ---   --   ---xx   flac  0.3864  little2019-03-12d01t09.flac
     1:24.45       14923484 B   ---   --   ---xx   flac  0.4195  little2019-03-12d01t10.flac
     6:41.53       70861100 B   ---   --   ---xx   flac  0.5004  little2019-03-12d01t11.flac
     4:49.17       51019628 B   ---   --   ---xx   flac  0.5242  little2019-03-12d01t12.flac
     9:40.16      102349676 B   ---   --   ---xx   flac  0.4912  little2019-03-12d02t01.flac
     5:16.12       55770668 B   ---   --   ---xx   flac  0.4812  little2019-03-12d02t02.flac
     9:57.62      105456668 B   ---   --   ---xx   flac  0.4946  little2019-03-12d02t03.flac
     4:45.25       50332844 B   ---   --   ---xx   flac  0.4630  little2019-03-12d02t04.flac
     4:24.48       46682540 B   ---   --   ---xx   flac  0.4327  little2019-03-12d02t05.flac
     9:11.14       97229372 B   ---   --   ---xx   flac  0.5035  little2019-03-12d02t06.flac
     0:31.61        5611916 B   ---   --   ---xx   flac  0.3491  little2019-03-12d02t07.flac
     8:11.41       86708876 B   ---   --   ---xx   flac  0.5183  little2019-03-12d02t08.flac
   115:42.05     1224581440 B                            0.4810  (20 files)




More information about the bittorrent mailing list